<?xml version="1.0" standalone="no"?>
<!DOCTYPE svg PUBLIC "-//W3C//DTD SVG 1.1//EN" "http://www.w3.org/Graphics/SVG/1.1/DTD/svg11.dtd" >
<svg xmlns="http://www.w3.org/2000/svg">
<metadata>Generated by IcoMoon</metadata>
<defs>
<font id="icomoon" horiz-adv-x="1024">
<font-face units-per-em="1024" ascent="960" descent="-64" />
<missing-glyph horiz-adv-x="1024" />
<glyph unicode="&#x20;" horiz-adv-x="512" d="" />
<glyph unicode="&#xe900;" glyph-name="calendar" d="M969.387 864.427v92.16h-58.027v-92.16h-157.013v95.573h-58.027v-92.16h-157.013v92.16h-58.027v-92.16h-157.013v92.16h-58.027v-92.16h-157.013v92.16h-58.027v-92.16h-51.2v-931.84h1024v928.427h-54.613zM962.56-5.973h-904.533v648.533h904.533v-648.533zM143.36 526.507h116.053v-116.053h-116.053v116.053zM348.16 526.507h116.053v-116.053h-116.053v116.053zM556.373 526.507h116.053v-116.053h-116.053v116.053zM761.173 526.507h116.053v-116.053h-116.053v116.053zM143.36 222.72h116.053v-116.053h-116.053v116.053zM348.16 222.72h116.053v-116.053h-116.053v116.053zM556.373 222.72h116.053v-116.053h-116.053v116.053zM761.173 222.72h116.053v-116.053h-116.053v116.053z" />
<glyph unicode="&#xe901;" glyph-name="casinos" d="M887.467 823.467c0 0-235.52 136.533-238.933 136.533v0 0 0h-273.067l-238.933-136.533-136.533-238.933v-273.067l136.533-238.933 238.933-136.533h273.067l238.933 136.533 136.533 238.933v273.067l-136.533 238.933zM962.56 570.88v-242.347l-78.507 20.48v197.973l78.507 23.893zM430.080 137.387l-143.36 85.333-81.92 143.36v167.253l81.92 146.773 143.36 81.92h167.253l143.36-85.333 85.333-143.36v-167.253l-85.333-146.773-143.36-85.333h-167.253v3.413zM843.093 779.093v0l-58.027-58.027-13.653 6.827-143.36 81.92-13.653 6.827 20.48 78.507 208.213-116.053zM413.013 820.053v0l-13.653-6.827-146.773-85.333-13.653-6.827-58.027 58.027 208.213 119.467 23.893-78.507zM61.44 567.467l78.507-20.48v-197.973l-81.92-20.48v238.933h3.413zM392.533-2.56l-208.213 119.467 58.027 58.027 13.653-6.827 143.36-81.92 13.653-6.827-20.48-81.92zM610.987 79.36v0l13.653 6.827 143.36 85.333 13.653 6.827 58.027-58.027-208.213-119.467-20.48 78.507zM621.227 598.187h-218.453l-126.293-126.293 235.52-235.52 235.52 235.52-126.293 126.293zM361.813 468.48l64.853 64.853h170.667l68.267-64.853-150.187-150.187-153.6 150.187z" />
<glyph unicode="&#xe902;" glyph-name="info" d="M699.733 901.973l266.24-266.24v-375.467l-266.24-266.24h-375.467l-262.827 266.24v375.467l262.827 266.24h375.467zM723.627 960h-423.253l-300.373-300.373v-423.253l300.373-300.373h423.253l300.373 300.373v423.253l-300.373 300.373zM450.56 768.853h122.88v-122.88h-122.88v122.88zM450.56 516.267v0h-61.44v-122.88h61.44v-262.827h122.88v385.707z" />
<glyph unicode="&#xe903;" glyph-name="mail-o" d="M1017.173 840.533h-1017.173v-768h1024v768h-6.827zM61.44 779.093h897.707v-119.467l-354.987-262.827h-187.733l-354.987 266.24v116.053zM58.027 130.56v457.387l337.92-252.587h228.693l337.92 256v-457.387h-904.533v-3.413z" />
<glyph unicode="&#xe904;" glyph-name="menu" d="M3.413 45.227h1020.587v-75.093h-1020.587v75.093zM0 642.56h1020.587v-75.093h-1020.587v75.093zM0 342.187h1020.587v-75.093h-1020.587v75.093zM0 942.933h1020.587v-75.093h-1020.587v75.093z" />
<glyph unicode="&#xe905;" glyph-name="netent" horiz-adv-x="1023" d="M172.77 610.255l-1.682-164.526h-171.087v514.103h5.552l846.52-676.442v676.61h170.919v-1023.327h-4.037l-846.184 673.582zM170.919 106.919v262.771h-170.919v-433.858h630.18v171.087h-459.261zM328.548 789.081l-219.368 170.919h510.738v-170.919h-291.37z" />
<glyph unicode="&#xe906;" glyph-name="money" horiz-adv-x="1031" d="M1030.872 441.128h-130.577v254.282h-68.725l-27.49 144.322-51.544-10.309-51.544 130.577-697.557-257.718v-3.436h-3.436v-762.846h900.295v254.282h130.577v250.846zM773.154 698.846h-405.477l395.168 68.725 10.309-68.725zM697.557 819.114l-384.859-68.725 360.805 134.013 24.054-65.289zM841.879-9.020h-780.027v646.013h780.027v-195.866h-65.289v-257.718h65.289v-192.43z" />
<glyph unicode="&#xe907;" glyph-name="money-bag" d="M549.547 666.453l10.24 17.067 133.12 180.907 71.68 95.573h-508.587l71.68-95.573 133.12-180.907 13.653-17.067-474.453-474.453 256-256h512l256 256-474.453 474.453zM744.107-2.56h-467.627l-194.56 194.56 430.080 426.667 423.253-426.667-191.147-194.56zM532.48 280.747l-37.547 17.067c-10.24 3.413-13.653 13.653-13.653 23.893s6.827 17.067 13.653 20.48c13.653 3.413 23.893 6.827 37.547 6.827 20.48 0 37.547-6.827 54.613-17.067v51.2c-17.067 6.827-37.547 10.24-54.613 13.653v30.72h-40.96v-34.133c-40.96-3.413-68.267-34.133-71.68-75.093 0-44.373 27.307-64.853 71.68-81.92 0 0 27.307-10.24 37.547-17.067 10.24-3.413 17.067-13.653 17.067-23.893s-6.827-17.067-17.067-20.48c-13.653-3.413-23.893-6.827-37.547-3.413-23.893 3.413-44.373 6.827-64.853 20.48v-54.613c20.48-10.24 44.373-13.653 68.267-13.653v-30.72h37.547v34.133c40.96 0 71.68 34.133 71.68 75.093s-27.307 58.027-71.68 78.507z" />
<glyph unicode="&#xe908;" glyph-name="news" d="M764.587 509.44v450.56h-764.587v-931.84l95.573-92.16h836.267l92.16 92.16v477.867l-259.413 3.413zM119.467-2.56l-58.027 58.027v843.093h645.12v-870.4l34.133-34.133h-621.227v3.413zM126.293 833.707h512v-126.293h-512v126.293zM126.293 577.707h256v-249.173h-256v249.173zM443.733 577.707h194.56v-34.133h-194.56v34.133zM443.733 362.667h194.56v-34.133h-194.56v34.133zM126.293 209.067h512v-34.133h-512v34.133zM126.293 99.84h512v-34.133h-512v34.133zM443.733 468.48h194.56v-34.133h-194.56v34.133z" />
<glyph unicode="&#xe909;" glyph-name="spins" d="M245.76-64h778.24v256h-71.68v-177.493h-628.053v290.133l167.253-167.253v109.227l-204.8 204.8-204.8-204.8v-109.227l163.84 163.84v-365.227zM948.907 345.6v-75.093h75.093v75.093h-78.507zM948.907 499.2v-75.093h75.093v75.093h-78.507zM795.307 502.613l146.773 146.773v109.227l-163.84-163.84v365.227h-778.24v-252.587h75.093v177.493h628.053v-293.547l-167.253 167.253v-105.813l204.8-204.8 44.373 40.96 10.24 13.653zM75.093 550.4v78.507h-75.093v-78.507h75.093zM75.093 396.8v75.093h-75.093v-75.093h75.093z" />
<glyph unicode="&#xe90a;" glyph-name="seven" horiz-adv-x="768" d="M61.44 898.56h648.533v-194.56l-406.187-706.56h-197.973l354.987 621.227 51.2 88.747h-450.56v191.147zM0 960v-314.027h406.187l-406.187-709.973h341.333l426.667 754.347v269.653h-768z" />
<glyph unicode="&#xe90b;" glyph-name="watermelon" horiz-adv-x="884" d="M884.053 584.533v0l-136.533 238.933-238.933 136.533-64.853-116.053-81.92-143.36-361.813-628.053 238.933-136.533h273.067l235.52 136.533 136.533 238.933v273.067zM501.76 809.813l146.773-85.333 17.067-30.72 81.92-143.36v-197.973l-85.333-150.187-17.067-30.72-112.64-64.853-61.44-34.133h-201.387l-146.773 85.333-17.067 10.24 378.88 651.947 17.067-10.24zM413.013 389.973l34.133 61.44-54.613 34.133-6.827 3.413-34.133-61.44 6.827-3.413zM452.106 263.741l35.625 62.204 62.204-35.625-35.625-62.204-62.204 35.625zM542.65 424.965l35.625 62.204 62.204-35.625-35.625-62.204-62.204 35.625zM505.173 550.4l34.133 61.44-54.613 30.72-6.827 3.413-34.133-61.44 3.413-3.413zM320.853 229.547l34.133 61.44-54.613 34.133-6.827 3.413-34.133-61.44 6.827-3.413z" />
<glyph unicode="&#xe90c;" glyph-name="arrow-left" d="M1024 487.6h-871l343.8 343.8-56.4 56.6-440.4-440.4 440.4-440.2 56.4 56.4-343.8 343.8h871z" />
<glyph unicode="&#xe90d;" glyph-name="cards" d="M985 770.2l-627.2 132.8c-26.6 5.6-52.8-11.6-58.4-38l-12-76.6 723.6-153.2 12 76.6c5.6 26.4-11.6 52.8-38 58.4zM721.2 619c-7.4 26.4-34.8 42-61.2 34.6l-119-33-280.8 59.4-30.8-145.8-192.8-53.6c-26.4-7.4-42-34.8-34.6-61.2l108.6-391.6c7.4-26.4 34.8-42 61.2-34.6l623.4 172.8c26.4 7.4 42 34.8 34.6 61.2l-18.6 67.2 70-14.8c26.6-5.6 52.8 11.4 58.4 38l44.2 209-251.8 53.6-10.8 38.8zM793.2 419.8l15.4 72.8c2.4 11 13.2 18 24 15.6l72.8-15.4c11-2.4 18-13.2 15.6-24l-15.4-72.8c-2.4-11-13.2-18-24-15.6l-72.8 15.4c-11 2.4-18 13.2-15.6 24zM47.4 441.6l623.4 173c0.8 0.2 1.6 0.4 2.4 0.4 3.6 0 7.8-2.4 9-6.8l5.2-18.6 16.2-58-641.2-178-21.2 76.6c-1.6 4.8 1.2 10 6.2 11.4zM790.8 216.4c0.8-3 0-5.4-1-7-0.8-1.6-2.6-3.6-5.4-4.4l-623.4-172.8c-0.8-0.2-1.6-0.4-2.4-0.4-3.6 0-7.8 2.4-9 6.8l-63.4 228.4 641.2 178 39.2-140.8 24.2-87.8zM261.6 200.8c-3 10.8-14.2 17.2-25 14.2l-72.8-20.2c-10.8-3-17.2-14.2-14.2-25l20.4-72.8c3-10.8 14.2-17.2 25-14.2l72.8 20.2c10.8 3 17.2 14.2 14.2 25l-20.4 72.8z" />
<glyph unicode="&#xe90e;" glyph-name="check" d="M512 960c-282.4 0-512-229.6-512-512s229.6-512 512-512 512 229.6 512 512-229.6 512-512 512zM797.4 618.8l-315-354.6c-7.8-8.8-18.6-13.2-29.4-13.2-8.6 0-17.4 2.8-24.6 8.6l-197 157.6c-17 13.6-19.8 38.4-6.2 55.4s38.4 19.8 55.4 6.2l167.8-134.2 290.2 326.6c14.4 16.2 39.4 17.8 55.6 3.2 16.2-14.4 17.6-39.4 3.2-55.6z" />
<glyph unicode="&#xe90f;" glyph-name="check-o" d="M736.4 670.6l-350.6-387.6-110.6 122.2c-11.8 13.2-32 14-45.2 2.2-13-11.8-14.2-32-2.2-45.2l128.8-142.4c5.8-8.6 15.6-13.6 26-13.6 1.2 0 2.4 0.4 3.6 0.6 0.8 0 1.6-0.6 2.4-0.6 9.4 0 18.6 4.2 24.8 11.6l370.4 409.6c11.8 13.2 10.8 33.4-2.2 45.2-13.2 12.2-33.4 11.2-45.2-2v0zM512 960c-282.4 0-512-229.6-512-512s229.6-512 512-512c282.4 0 512 229.6 512 512s-229.6 512-512 512zM512 0c-247 0-448 201-448 448s201 448 448 448c247 0 448-201 448-448s-201-448-448-448z" />
<glyph unicode="&#xe910;" glyph-name="chevron-down" d="M29.257 706.438c14.629 14.629 34.133 14.629 48.762 0l429.105-443.733 429.105 443.733c14.629 14.629 34.133 14.629 48.762 0s14.629-34.133 0-48.762l-453.486-468.114c-4.876-4.876-14.629-9.752-24.381-9.752s-19.505 4.876-24.381 9.752l-453.486 463.238c-14.629 14.629-14.629 39.010 0 53.638zM960.61 740.571v0c14.629 0 29.257-4.876 43.886-19.505 24.381-24.381 24.381-58.514 0-82.895l-453.486-463.238c-24.381-24.381-63.39-24.381-82.895 0l-453.486 463.238c-14.629 9.752-19.505 24.381-19.505 43.886 0 14.629 4.876 29.257 14.629 43.886 14.629 9.752 29.257 14.629 43.886 14.629v0c14.629 0 29.257-4.876 43.886-19.505l409.6-424.229 409.6 424.229c14.629 14.629 29.257 19.505 43.886 19.505zM507.124 204.19c4.876 0 4.876 0 4.876 4.876l453.486 463.238c4.876 4.876 4.876 9.752 0 14.629 0 4.876-4.876 4.876-4.876 4.876v0c0 0-4.876 0-4.876-4.876l-448.61-458.362-443.733 458.362c-4.876 4.876-9.752 4.876-9.752 4.876v0c0 0-4.876 0-4.876-4.876v0c-4.876 0-4.876-4.876-4.876-4.876s0-4.876 4.876-9.752l453.486-468.114h4.876z" />
<glyph unicode="&#xe911;" glyph-name="chevron-left-circle" d="M512-64c283.307 0 512 228.693 512 512s-228.693 512-512 512-512-228.693-512-512 228.693-512 512-512zM353.28 449.707l283.307 233.813c6.827 5.12 17.067 5.12 23.893 0s6.827-13.653 0-20.48l-271.36-223.573 271.36-223.573c6.827-5.12 6.827-13.653 0-20.48-3.413-3.413-8.533-3.413-11.947-3.413-5.12 0-8.533 1.707-11.947 3.413l-283.307 233.813c-6.827 5.12-6.827 15.36 0 20.48z" />
<glyph unicode="&#xe912;" glyph-name="chevron-right-circle" d="M512-64c-283.307 0-512 228.693-512 512s228.693 512 512 512 512-228.693 512-512-228.693-512-512-512zM670.72 449.707l-283.307 233.813c-6.827 5.12-17.067 5.12-23.893 0s-6.827-13.653 0-20.48l271.36-223.573-271.36-223.573c-6.827-5.12-6.827-13.653 0-20.48 3.413-3.413 8.533-3.413 11.947-3.413 5.12 0 8.533 1.707 11.947 3.413l283.307 233.813c6.827 5.12 6.827 15.36 0 20.48z" />
<glyph unicode="&#xe913;" glyph-name="chevron-up" d="M989.867 189.562c-14.629-14.629-34.133-14.629-48.762 0l-429.105 443.733-429.105-443.733c-14.629-14.629-34.133-14.629-48.762 0s-14.629 34.133 0 48.762l453.486 468.114c4.876 4.876 14.629 9.752 24.381 9.752s19.505-4.876 24.381-9.752l453.486-463.238c14.629-14.629 14.629-39.010 0-53.638zM58.514 155.429c0 0 0 0 0 0-14.629 0-29.257 4.876-43.886 19.505-24.381 24.381-24.381 58.514 0 82.895l453.486 463.238c24.381 24.381 63.39 24.381 82.895 0l453.486-463.238c14.629-9.752 19.505-24.381 19.505-43.886 0-14.629-4.876-29.257-14.629-43.886-14.629-9.752-29.257-14.629-43.886-14.629v0c-14.629 0-29.257 4.876-43.886 19.505l-409.6 424.229-409.6-424.229c-14.629-14.629-29.257-19.505-43.886-19.505zM512 691.81c-4.876 0-4.876 0-4.876-4.876l-453.486-463.238c-4.876-4.876-4.876-9.752 0-14.629 0-4.876 4.876-4.876 4.876-4.876v0c0 0 4.876 0 4.876 4.876l448.61 458.362 443.733-458.362c4.876-4.876 9.752-4.876 9.752-4.876v0c0 0 4.876 0 4.876 4.876v0c4.876 0 4.876 4.876 4.876 4.876s0 4.876-4.876 9.752l-453.486 468.114c0 0-4.876 0-4.876 0z" />
<glyph unicode="&#xe914;" glyph-name="close" d="M581.486 448l427.886 427.886c18.286 18.286 18.286 51.2 0 69.486s-51.2 18.286-69.486 0l-427.886-427.886-427.886 427.886c-18.286 18.286-51.2 18.286-69.486 0s-18.286-51.2 0-69.486l427.886-427.886-427.886-427.886c-18.286-18.286-18.286-51.2 0-69.486 10.971-10.971 21.943-14.629 32.914-14.629s25.6 3.657 32.914 14.629l431.543 427.886 427.886-427.886c10.971-10.971 21.943-14.629 36.571-14.629s25.6 3.657 36.571 14.629c18.286 18.286 18.286 51.2 0 69.486l-431.543 427.886z" />
<glyph unicode="&#xe915;" glyph-name="close-cirlce-o" d="M512 947.981c276.432 0 499.981-223.549 499.981-499.981s-223.549-499.981-499.981-499.981-499.981 223.549-499.981 499.981 223.549 499.981 499.981 499.981zM512-13.521c254.798 0 461.521 206.723 461.521 461.521s-206.723 461.521-461.521 461.521-461.521-206.723-461.521-461.521 206.723-461.521 461.521-461.521zM699.493 635.493c7.211-7.211 7.211-19.23 0-26.441l-158.648-158.648 158.648-158.648c7.211-7.211 7.211-19.23 0-26.441-4.808-4.808-9.615-4.808-14.423-4.808s-9.615 2.404-14.423 4.808l-158.648 158.648-158.648-158.648c-4.808-4.808-9.615-4.808-14.423-4.808s-9.615 2.404-14.423 4.808c-7.211 7.211-7.211 19.23 0 26.441l158.648 158.648-158.648 158.648c-7.211 7.211-7.211 19.23 0 26.441s19.23 7.211 26.441 0l158.648-158.648 158.648 158.648c9.615 7.211 24.038 7.211 31.249 0zM512-64c-281.239 0-512 230.761-512 512s230.761 512 512 512 512-230.761 512-512c0-281.239-230.761-512-512-512zM512 935.962c-269.221 0-487.962-218.742-487.962-487.962s218.742-487.962 487.962-487.962c269.221 0 487.962 218.742 487.962 487.962s-218.742 487.962-487.962 487.962zM512-25.54c-262.009 0-473.54 211.531-473.54 473.54s211.531 473.54 473.54 473.54c262.009 0 473.54-211.531 473.54-473.54s-211.531-473.54-473.54-473.54zM512 897.502c-247.587 0-449.502-201.915-449.502-449.502s201.915-449.502 449.502-449.502 449.502 201.915 449.502 449.502-201.915 449.502-449.502 449.502zM685.070 243.681c-7.211 0-16.826 2.404-21.634 9.615l-151.437 151.437-151.437-151.437c-12.019-12.019-33.653-12.019-43.268 0-4.808 4.808-9.615 14.423-9.615 21.634s2.404 16.826 9.615 21.634l151.437 151.437-151.437 151.437c-12.019 12.019-12.019 31.249 0 43.268s31.249 12.019 43.268 0l151.437-151.437 151.437 151.437c12.019 12.019 31.249 12.019 43.268 0v0c4.808-4.808 9.615-14.423 9.615-21.634s-2.404-16.826-9.615-21.634l-151.437-151.437 151.437-151.437c4.808-4.808 9.615-14.423 9.615-21.634s-2.404-16.826-9.615-21.634c-4.808-7.211-14.423-9.615-21.634-9.615zM512 438.385l168.263-168.263c2.404-2.404 7.211-2.404 9.615 0s2.404 2.404 2.404 4.808 0 4.808-2.404 4.808l-168.263 168.263 168.263 168.263c2.404 2.404 2.404 2.404 2.404 4.808s0 4.808-2.404 4.808v0c-2.404 2.404-7.211 2.404-9.615 0l-168.263-168.263-168.263 168.263c-2.404 2.404-7.211 2.404-9.615 0s-2.404-7.211 0-9.615l168.263-168.263-168.263-168.263c-2.404-2.404-2.404-2.404-2.404-4.808s0-4.808 2.404-4.808 7.211-2.404 9.615 0l168.263 168.263z" />
<glyph unicode="&#xe916;" glyph-name="gift-o" horiz-adv-x="1082" d="M579.623 476.981v135.245h444.377v-135.245h-444.377zM579.623-25.358v425.057h367.094v-425.057h-367.094zM135.245-25.358v425.057h367.094v-425.057h-367.094zM77.283 476.981v135.245h444.377v-135.245h-444.377zM292.846 751.8c-29.807 29.896-29.807 78.635 0 108.531 14.441 14.452 33.578 22.386 53.924 22.386 20.275 0 39.411-7.934 53.853-22.386 47.948-48.031 95.612-170.731 79.036-187.804 0 0-2.988-2.338-13.161-2.338-49.157 0-142.99 50.865-173.652 81.611zM602.277 672.535c-16.501 17.137 31.152 140.293 79.090 188.503 28.876 28.94 78.948 28.869 107.753 0 29.801-30.007 29.801-78.928 0-108.935-30.655-30.86-124.468-81.915-173.614-81.915-10.171 0-13.158 2.275-13.229 2.347zM1014.34 687.917h-213.958c15.35 10.595 28.537 21.122 37.733 30.555 54.504 55.437 54.504 145.667 0 201.104-52.949 53.865-145.321 53.933-198.337 0-29.281-29.735-107.114-150.794-96.362-231.659h-4.869c10.684 80.865-67.082 201.924-96.362 231.659-53.016 53.933-145.389 53.865-198.337 0-54.504-55.437-54.504-145.667-0.068-201.104 9.264-9.433 22.451-19.96 37.801-30.555h-213.958c-37.26 0-67.623-30.692-67.623-68.356v-170.89c0-18.866 15.147-34.178 33.811-34.178h33.811v-410.137c0-37.664 30.363-68.356 67.623-68.356h811.472c37.26 0 67.623 30.692 67.623 68.356v410.137h33.811c18.664 0 33.811 15.312 33.811 34.178v170.89c0 37.664-30.363 68.356-67.623 68.356z" />
<glyph unicode="&#xe917;" glyph-name="laptop" d="M1017.976 207.059c0 2.008-2.008 2.008-4.016 2.008h-1007.937c-2.008 0-2.008 0-4.016-2.008-2.008 0-2.008-2.008-2.008-4.016 0 0 16.063-90.353 134.525-90.353h752.941c118.463 0 132.518 90.353 134.525 90.353-2.008 2.008-2.008 4.016-4.016 4.016zM433.694 144.816v32.125h152.596v-34.133h-152.596zM96.376 251.231c-12.047 0-20.078 10.039-20.078 20.078v487.906c0 12.047 10.039 20.078 20.078 20.078h791.090c12.047 0 20.078-10.039 20.078-20.078v-485.898c0-12.047-10.039-20.078-20.078-20.078h-791.090zM148.58 323.514h686.682v383.498h-686.682v-383.498z" />
<glyph unicode="&#xe918;" glyph-name="mail" d="M505.173 379.733c-10.24 0-17.067 3.413-23.893 6.827l-477.867 402.773c0 0 3.413 0 3.413 0h996.693c3.413 0 3.413 0 3.413-3.413l-481.28-399.36c0 0 0 0 0 0v0c-6.827-3.413-13.653-6.827-20.48-6.827v0zM0 734.72l341.333-286.72-341.333-279.893v566.613zM662.187 448l341.333 286.72v-566.613l-341.333 279.893zM556.373 355.84l75.093 64.853 375.467-307.2c0-3.413-3.413-6.827-6.827-6.827h-993.28c-3.413 0-6.827 3.413-6.827 6.827v0l375.467 307.2 78.507-64.853c13.653-10.24 30.72-17.067 51.2-17.067s37.547 6.827 51.2 17.067z" />
<glyph unicode="&#xe919;" glyph-name="message-bubbles" d="M951.467 648.533c51.2 0 72.533-34.133 72.533-76.8v-358.4c0-42.667-21.333-89.6-72.533-89.6h-4.267l25.6-98.133-162.133 98.133h-426.667c-51.2 0-98.133 46.933-98.133 89.6v17.067h554.667c55.467 0 85.333 46.933 85.333 98.133v320h25.6zM797.867 874.667c59.733 0 115.2-51.2 115.2-102.4v-409.6c0-51.2-55.467-85.333-115.2-85.333h-490.667l-230.4-136.533 34.133 136.533c-55.467 0-110.933 34.133-110.933 81.067v413.867c0 51.2 68.267 102.4 128 102.4h669.867zM230.4 529.067c34.133 0 59.733 25.6 59.733 59.733s-25.6 59.733-59.733 59.733c-34.133 0-59.733-25.6-59.733-59.733s25.6-59.733 59.733-59.733zM456.533 529.067c34.133 0 59.733 25.6 59.733 59.733s-25.6 59.733-59.733 59.733c-34.133 0-59.733-25.6-59.733-59.733-4.267-34.133 25.6-59.733 59.733-59.733zM682.667 529.067c34.133 0 59.733 25.6 59.733 59.733s-25.6 59.733-59.733 59.733c-34.133 0-59.733-25.6-59.733-59.733-4.267-34.133 25.6-59.733 59.733-59.733z" />
<glyph unicode="&#xe91a;" glyph-name="mobile-" horiz-adv-x="580" d="M505.4 960h-430.8c-41.4 0-74.6-33.4-74.6-74.6v-874.8c0-41.2 33.2-74.6 74.6-74.6h430.8c41.2 0 74.6 33.4 74.6 74.6v874.8c-0.2 41.2-33.4 74.6-74.6 74.6zM183.6 914.6h212.6c5.4 0 9.8-8 9.8-18s-4.4-18-9.8-18h-212.6c-5.4 0-9.8 8-9.8 18 0.2 10 4.4 18 9.8 18zM290 9.6c-26.2 0-47.6 21.4-47.6 47.6s21.4 47.6 47.6 47.6c26.2 0 47.6-21.2 47.6-47.6s-21.4-47.6-47.6-47.6zM524 172.6h-468.2v661.6h468.2v-661.6z" />
<glyph unicode="&#xe91b;" glyph-name="payments" d="M754.347 681.813l10.24 40.96 153.6-40.96c-80.213 141.653-232.107 235.52-406.187 235.52-259.413 0-469.333-209.92-469.333-469.333s209.92-469.333 469.333-469.333c172.373 0 324.267 93.867 404.48 232.107l37.547-20.48c-88.747-151.893-252.587-254.293-442.027-254.293-283.307 0-512 228.693-512 512s228.693 512 512 512c184.32 0 344.747-97.28 435.2-242.347l35.84 134.827 40.96-11.947-54.613-215.040-215.040 56.32zM600.747 504.32c-32.427 0-59.733 27.307-59.733 59.733s27.307 59.733 59.733 59.733c32.427 0 59.733-27.307 59.733-59.733s-27.307-59.733-59.733-59.733zM581.973 570.88c3.413-3.413 8.533-5.12 17.067-6.827v-29.013c-5.12 0-10.24 3.413-11.947 6.827-1.707 1.707-1.707 5.12-1.707 10.24h-8.533c0-5.12 1.707-10.24 3.413-13.653 3.413-6.827 10.24-10.24 20.48-10.24v-11.947h5.12v10.24c6.827 0 10.24 1.707 13.653 3.413 6.827 3.413 8.533 10.24 8.533 20.48 0 6.827-1.707 11.947-6.827 13.653-3.413 1.707-8.533 3.413-17.067 6.827v25.6c5.12 0 8.533-1.707 10.24-5.12 1.707-1.707 1.707-3.413 1.707-6.827h8.533c0 5.12-1.707 10.24-5.12 13.653s-8.533 5.12-15.36 6.827v6.827h-5.12v-6.827c-6.827 0-11.947-1.707-15.36-6.827-3.413-3.413-5.12-8.533-5.12-13.653-1.707-6.827 0-10.24 3.413-13.653zM488.107 615.253c-23.893 0-44.373 20.48-44.373 44.373s20.48 44.373 44.373 44.373c23.893 0 44.373-20.48 44.373-44.373 0-25.6-20.48-44.373-44.373-44.373zM472.747 663.040c3.413-1.707 6.827-3.413 11.947-5.12v-20.48c-5.12 0-6.827 1.707-8.533 5.12-1.707 1.707-1.707 3.413-1.707 8.533h-6.827c0-5.12 0-8.533 1.707-10.24 3.413-5.12 8.533-6.827 15.36-8.533v-6.827h3.413v6.827c5.12 0 8.533 1.707 10.24 3.413 5.12 3.413 6.827 8.533 6.827 15.36 0 5.12-1.707 8.533-5.12 10.24-1.707 1.707-6.827 3.413-11.947 5.12v18.773c3.413 0 6.827-1.707 8.533-3.413s1.707-3.413 1.707-5.12h6.827c0 5.12-1.707 8.533-5.12 10.24-3.413 3.413-6.827 3.413-11.947 5.12v5.12h-3.413v-5.12c-5.12 0-8.533-1.707-11.947-5.12s-5.12-6.827-5.12-10.24c1.707-6.827 3.413-10.24 5.12-13.653zM457.387 448c-15.36-1.707-29.013-3.413-44.373-8.533-15.36 13.653-23.893 34.133-23.893 56.32 0 42.667 34.133 76.8 76.8 76.8s76.8-34.133 76.8-76.8c0-22.187-8.533-40.96-22.187-54.613-15.36 5.12-30.72 6.827-46.080 6.827 5.12 1.707 10.24 1.707 13.653 5.12 6.827 5.12 11.947 13.653 11.947 25.6 0 8.533-3.413 13.653-8.533 18.773-3.413 1.707-10.24 5.12-20.48 8.533v32.427c6.827 0 10.24-3.413 13.653-6.827 1.707-1.707 1.707-5.12 3.413-8.533h11.947c0 6.827-3.413 13.653-6.827 18.773-5.12 5.12-11.947 6.827-20.48 8.533v8.533h-6.827v-8.533c-8.533 0-15.36-3.413-20.48-8.533s-6.827-11.947-6.827-18.773c0-6.827 1.707-13.653 6.827-17.067s11.947-6.827 22.187-8.533v-35.84c-6.827 0-11.947 3.413-15.36 8.533-1.707 3.413-1.707 6.827-3.413 13.653h-11.947c0-6.827 1.707-13.653 3.413-18.773 0-10.24 6.827-15.36 17.067-17.067zM450.56 511.147c-3.413 1.707-5.12 5.12-5.12 10.24 0 3.413 1.707 6.827 3.413 10.24s6.827 5.12 11.947 5.12v-30.72c-3.413 1.707-6.827 3.413-10.24 5.12zM481.28 487.253c3.413-3.413 6.827-6.827 6.827-11.947 0-3.413 0-6.827-1.707-8.533-3.413-5.12-8.533-8.533-15.36-8.533v35.84c3.413-3.413 6.827-5.12 10.24-6.827zM728.747 294.4c-47.787-51.2-119.467-68.267-133.12-71.68-3.413-15.36-1.707-32.427 0-47.787h-58.027c-8.533 10.24-13.653 20.48-20.48 30.72-42.667-3.413-83.627-1.707-119.467 6.827-1.707-13.653 0-27.307 1.707-39.253h-58.027c-17.067 23.893-23.893 58.027-29.013 93.867-29.013 23.893-27.307 90.453-5.12 122.88-25.6 6.827-11.947 56.32 15.36 37.547-17.067 3.413-17.067-22.187-5.12-22.187 18.773 20.48 44.373 34.133 71.68 44.373 0 0 0 0 0 0l17.067-23.893c39.253 13.653 83.627 13.653 122.88 0l13.653 23.893c22.187-6.827 39.253-17.067 52.907-30.72 13.653 15.36 35.84 32.427 61.44 30.72-10.24-8.533-13.653-25.6-13.653-44.373 29.013-13.653 47.787-34.133 63.147-63.147 5.12-1.707 22.187 0 32.427 0 0-20.48-1.707-39.253-10.24-47.787z" />
<glyph unicode="&#xe91c;" glyph-name="phone" d="M1023.6 152c2.2-16.6-2.8-31-15.2-43.4l-144.2-143c-6.6-7.2-15-13.4-25.4-18.4s-20.8-8.4-30.8-9.8c-0.8 0-2.8-0.2-6.6-0.6-3.6-0.4-8.4-0.6-14-0.6-13.8 0-36 2.4-66.6 7-30.8 4.6-68.2 16.2-112.8 34.6-44.4 18.4-94.8 46-151.2 83-56.4 36.8-116.4 87.4-180 151.8-50.6 49.8-92.6 97.6-125.8 143-33.2 45.6-60 87.6-80.2 126.2s-35.4 73.8-45.6 105.2-17 58.6-20.6 81.4-5 40.6-4.4 53.6c0.8 13 1 20.2 1 21.6 1.6 10.4 4.8 20.8 9.8 31.2s11.2 19 18.4 25.4l144.2 144.2c10.2 10.2 21.6 15.2 34.6 15.2 9.4 0 17.8-2.8 25-8.2s13.4-12.2 18.4-20l116-220c6.6-11.6 8.4-24.2 5.4-38-2.8-13.8-9-25.2-18.4-34.6l-53.2-53.2c-1.4-1.4-2.8-3.8-3.8-7s-1.6-6-1.6-8.2c2.8-15.2 9.4-32.6 19.6-52 8.6-17.4 22-38.4 40.2-63.4s43.8-53.6 77-86.2c32.6-33.2 61.4-59 86.8-77.6 25.2-18.4 46.4-32 63.4-40.6s30-14 39-15.8l13.6-2.8c1.4 0 3.8 0.6 7 1.6s5.6 2.4 7 3.8l61.8 62.8c13 11.6 28.2 17.4 45.6 17.4 12.2 0 22-2.2 29.2-6.6h1l209.2-123.6c15.2-9 24.2-20.8 27.2-35.4z" />
<glyph unicode="&#xe91d;" glyph-name="play-circle" d="M512 960c-282.8 0-512-229.2-512-512s229.2-512 512-512 512 229.2 512 512-229.2 512-512 512zM320 192v512l448-256-448-256z" />
<glyph unicode="&#xe91e;" glyph-name="tablet" horiz-adv-x="838" d="M803.6 925.8c-22.8 22.8-50.2 34.2-82.2 34.2h-605c-32 0-59.4-11.4-82.2-34.2s-34.2-50.2-34.2-82.2v-791.2c0-32 11.4-59.4 34.2-82.2s50.2-34.2 82.2-34.2h605c32 0 59.4 11.4 82.2 34.2s34.2 50.2 34.2 82.2v791.2c0 32-11.4 59.4-34.2 82.2zM451.6-3.6c-9.2-9.2-20.2-13.8-32.8-13.8s-23.6 4.6-32.8 13.8c-9.2 9.2-13.8 20.2-13.8 32.8s4.6 23.6 13.8 32.8c9.2 9.2 20.2 13.8 32.8 13.8s23.6-4.6 32.8-13.8c9.2-9.2 13.8-20.2 13.8-32.8 0-12.8-4.6-23.6-13.8-32.8zM744.8 145.4c0-6.4-2.4-11.8-7-16.4s-10-7-16.4-7h-605c-6.4 0-11.8 2.4-16.4 7s-7 10-7 16.4v698.2c0 6.4 2.4 11.8 7 16.4s10 7 16.4 7h605c6.4 0 11.8-2.2 16.4-7 4.6-4.6 7-10 7-16.4v-698.2z" />
<glyph unicode="&#xe91f;" glyph-name="bingo" d="M392.2 640.4c172.2 0 312.2-140 312.2-312.2s-140.2-312.2-312.2-312.2-312.2 140-312.2 312.2 140 312.2 312.2 312.2zM392.2 720.2c-216.6 0-392.2-175.6-392.2-392s175.6-392 392.2-392 392.2 175.6 392.2 392.2-175.8 391.8-392.2 391.8v0zM751.8 960c-143.4 0-260.8-111.2-271.2-252 75.4-18 142.4-57.6 194-112.2 4.8 0.4 11.4 1 20.6 1.8 10 1 9.8 2.2 13.6 3.2 4.8 1.6 8.6 4.2 11.2 7.6 2.6 3.6 3.8 8.8 3.8 15.8v131h-51.2v19.6h13c16.8 0 32 3.2 45.2 9.4 13.4 6.2 22.8 12.8 28.8 20h27.4c-0.4-10.2-0.8-22-1.4-35.6-0.4-13.6-0.8-25.8-0.8-36.6v-105.4c0-5.6 1.2-10.4 3.6-14.6s5.8-7.4 10.4-9.6c4-1.6 10.6-3.2 19.8-4.6s8.2-2.2 12.6-2.4v-25.4h-134.4c35.2-44.4 61-96.8 74.4-153.8 141.2 10 252.8 127.4 252.8 271.2 0 150.6-122 272.6-272.2 272.6zM491.8 360.2c13.6-9 25-21.2 34.2-36.6s14-34.4 14-57c0-40-15.4-72.6-46.4-97.8-30.8-25.4-70.4-38-118.4-38-37.2 0-68.2 8-93 24s-37.4 34.8-37.4 56.6c0 13 4.2 23.8 12.4 32.6 8.4 9 19.2 13.4 33 13.4 14.4 0 26-3.8 35.2-11.6s13.8-18 13.8-31c0-9-1.6-19-4.6-29.6-3-10.8-5.6-19-7.6-24.4 4.4-1.6 9.4-2.8 15.2-3.6s11.2-1.2 16.4-1.2c10.4 0 20.4 2.4 30.4 7s18.6 11.4 25.6 20.2c8.2 10.2 14.4 22.2 18.6 36s6.2 29.6 6.2 47.2c0 25.6-7 46.6-20.6 62.8-13.6 16.6-31.4 24.8-53.2 24.8-17 0-31-3.4-42.6-10.2-11.4-6.8-21.6-15.8-30.8-26.8l-21 7 26.4 200.4h225.4v-75.2h-205.8l-11.2-89.8c9.8 6.2 22.4 12 37.8 17.6s33.6 8.4 54.4 8.4c16.2 0 32.2-1.8 47.8-5.4 15.6-3.4 31-10 45.8-19.8z" />
<glyph unicode="&#xe920;" glyph-name="blackjack" d="M927.8 40.4h0.4c1.6 6.2 3.4 13.8 5.2 20.2l8.2 26.6h-27.6l8.4-26.6c2-6.6 3.8-14 5.4-20.2zM482.6 767.8h-0.4c-1.6-6.2-3.4-13.8-5-20.2l-8.4-26.6h27.6l-8.4 26.6c-2 6.6-3.8 13.8-5.4 20.2zM107.2 47.2c4.6-29.8 20.6-56 45-73.6 19.6-14.2 42.6-21.6 66.2-21.6 5.8 0 11.8 0.4 17.8 1.4l154.4 24.2c6.2-1 12.6-1.8 19-1.8 5.8 0 11.8 0.4 17.8 1.4l14 2.2c12.2-5.8 25.8-9.4 40.4-9.4h447.8c52.2 0 94.6 42.4 94.6 94.6v681.4c0 52.2-42.4 94.6-94.6 94.6h-70.2l-1.2 8.2c-4.6 29.8-20.6 56-45 73.6-24.4 17.8-54.2 25-84 20.2l-189.6-29.8-444-63.6c-61.4-9.6-103.6-67.4-94-129l105.6-673zM509.6 675.8l-9.8 30.6h-34l-9.2-30.6h-20.2l34.6 107.6h25l35-107.6h-21.4zM901 132.2l9.8-30.6h34l9.2 30.6h20.2l-34.6-107.6h-25l-35 107.6h21.4zM872.6 480.6c0 0 2-112.6-142-232.2-16.2-13.4-43.6-13.4-59.6 0-143 119.6-132.6 232.2-132.6 232.2 0 50.6 41 91.4 91.4 91.4 31.4 0 59.2-16 75.6-40.2 16.4 24.2 44.2 40.2 75.6 40.2 50.8 0.2 91.6-40.8 91.6-91.4zM292 837.2l442.4 69.6c20.2 3.2 40.4-1.8 56.8-13.8s27.4-29.8 30.6-50l0.4-2.4h-340.6c-52.2 0-94.6-42.4-94.6-94.6v-681.2c0-17.8 5.2-34.4 13.8-48.8l-9.4-1.4c-9.4 2.4-18.4 6.4-26.6 12.4-16.6 12-27.4 29.8-30.6 50l-105.8 672.8c-6.4 41.6 22 80.8 63.6 87.4zM100.8 813.2l113.2 16.2c-17.8-23.6-26.2-53.8-21.4-85.2l105.8-673c4-25.6 16.4-48.6 35.4-65.8l-103.2-16.2c-20.2-3.2-40.4 1.8-56.8 13.8-16.6 12-27.4 29.8-30.6 50l-105.8 672.8c-6.6 41.6 22 80.8 63.4 87.4z" />
<glyph unicode="&#xe921;" glyph-name="bones" d="M471.6 482.4v375.6c0 26.4-21.6 48-48 48h-375.6c-26.4 0-48-21.6-48-48v-375.6c0-26.4 21.6-48 48-48h375.6c26.4 0 48 21.6 48 48zM104.8 489.8c-27.2 0-49.4 22.2-49.4 49.4s22.2 49.4 49.4 49.4c27.2 0 49.4-22.2 49.4-49.4 0-27.4-22.2-49.4-49.4-49.4zM104.8 751.8c-27.2 0-49.4 22.2-49.4 49.4s22.2 49.4 49.4 49.4c27.2 0 49.4-22.2 49.4-49.4s-22.2-49.4-49.4-49.4zM239 624.4c-27.2 0-49.4 22.2-49.4 49.4s22.2 49.4 49.4 49.4c27.2 0 49.4-22.2 49.4-49.4s-22-49.4-49.4-49.4zM366.8 489.8c-27.2 0-49.4 22.2-49.4 49.4s22.2 49.4 49.4 49.4c27.2 0 49.4-22.2 49.4-49.4 0-27.4-22-49.4-49.4-49.4zM366.8 751.8c-27.2 0-49.4 22.2-49.4 49.4s22.2 49.4 49.4 49.4c27.2 0 49.4-22.2 49.4-49.4s-22-49.4-49.4-49.4zM1022.6 368.4c-3 12.4-10.6 23-21.4 29.8l-319.8 197.2c-7.6 4.6-16.2 7-25 7-16.8 0-32.2-8.6-41-22.8l-197.2-319.8c-13.8-22.6-6.8-52.2 15.6-66l319.8-197.2c7.6-4.6 16.2-7 25-7 16.8 0 32.2 8.6 41 22.8l197.2 319.8c6.8 10.8 8.8 23.6 5.8 36.2zM626.6 464.8c-3 12.8-1 26.2 6 37.4 9 14.8 24.8 23.6 42.2 23.6 9.2 0 18-2.6 26-7.4 23.2-14.4 30.4-44.8 16.2-68-9-14.8-24.8-23.6-42.2-23.6-9.2 0-18 2.6-26 7.4-11.2 7-19 17.8-22.2 30.6zM674.2 286c-3 12.8-1 26.2 6 37.4 9 14.8 24.8 23.6 42.2 23.6 9.2 0 18-2.6 26-7.4 11.2-7 19.2-17.8 22.2-30.6s1-26.2-6-37.4c-9-14.8-24.8-23.6-42.2-23.6-9.2 0-18 2.6-26 7.4-11.2 6.8-19 17.8-22.2 30.6zM802.6 89.6c-9-14.8-24.8-23.6-42.2-23.6-9.2 0-18 2.6-26 7.4-11.2 7-19.2 17.8-22.2 30.6s-1 26.2 6 37.4c9 14.8 24.8 23.6 42.2 23.6 9.2 0 18-2.6 26-7.4 23.2-14.2 30.4-44.8 16.2-68z" />
<glyph unicode="&#xe922;" glyph-name="bonus" horiz-adv-x="951" d="M240 835.4l27.8-12.2c-19.2-11.8-28-23.4-25.8-34.4 2.2-11.4 12.6-21.2 30.8-29 16.8-7.4 36.6-11.2 60.4-12.2 23.6-0.8 60 5.8 108.2 19.8 12 3.4 21.4 5.4 27.8 6s11.6-0.2 16.2-2.2c3.2-1.4 13-5.6-11.6-16.4-16-7-32.6-9.8-49.2-8.6-13.2 1-26.6-1.4-34.2-6.2l-14.8-9.4c-6.4-4.2-7.8-9.4-3.6-14s13.6-8 24.8-9c36.6-3.2 72.6 1 107.4 12.4l37.4-16.4c13.4-5.8 35-5.8 48.2 0 13.4 5.8 13.4 15.2 0 21l-38.8 17c17 10.8 26 21.8 26.6 32.6 0.8 12.6-9.4 23.8-30.4 32.8-15 6.6-32 10.6-50.6 12s-36.2 0.6-52.4-2.4c-16-3-40.2-9-72-18-13.8-3.8-23.2-5.8-27.8-5.8-4.4 0-8.6 0.6-11.6 2-11 4.8-1.8 11 8 15.2 12.2 5.2 25 7.8 38.4 7.4s26 2.8 32.2 8l8.6 7.2c5.4 4.6 5.2 10-0.8 14.4-5.8 4.4-16.6 7.2-28.2 7.4-25.4 0.4-50-3-74.6-10.4l-28.2 12.4c-13.4 5.8-35 5.8-48.2 0-13.4-5.8-13.4-15.2 0-21zM826.4 685.2c2.2 9.4 3.4 19 3.4 28.6v30.6c0 61.2-45.6 117.2-128.6 157.6-77 37.4-178.6 58-286.2 58s-209.4-20.6-286.4-58c-83-40.4-128.6-96.4-128.6-157.6v-30.6c0-60.4 44.4-115.6 125.2-155.8-2.2-9.4-3.6-21-3.6-28.4v-5.6c-78.4-40-121.6-94.6-121.6-154v-30.6c0-41.2 20.8-80.2 59.8-113.4-5.2-14-8-28.6-8-43.4v-30.6c0-61.2 45.6-117.2 128.6-157.6 77-37.4 178.6-58 286.2-58s209.4 20.6 286.2 58c83 40.4 128.6 96.4 128.6 157.6v30.6c0 41.2-20.8 80.2-59.8 113.4 5.2 14 8 28.6 8 43.6v5.6c78.4 40 121.6 94.6 121.6 154v30.6c0.2 59.8-44.2 115-124.8 155.4zM58 770.2c12 30.6 44.8 60.2 93.8 84.2 69.8 34 163.2 52.8 263.2 52.8s193.2-18.8 263.2-52.8c49-23.8 81.8-53.6 93.8-84.2-42.4-73.8-190-127.6-357-127.6s-314.6 53.8-357 127.6zM58 395.8c9.8 24.8 33.4 49 68.2 70.2 13.4-48.2 56.2-91.6 124.2-124.6 77-37.4 178.6-58 286.2-58 10.6 0 21 0.2 31.4 0.6-47-10.2-99-15.8-153-15.8-167-0.2-314.6 53.8-357 127.6zM823.6 208.2c-42.4-73.8-190-127.6-357-127.6-145 0-275.4 40.6-334.8 99.8 76.6-36.6 176.8-56.6 283.2-56.6 107.6 0 209.4 20.6 286.2 58 39.8 19.4 71 42.4 92.8 67.8 14-13.4 24-27.2 29.6-41.4zM536.4 427.6c-145.8 0-276.8 41-335.8 100.6 63.8-19.6 137.6-30.2 214.4-30.2 107.6 0 209.4 20.6 286.2 58 46.6 22.6 81.4 50.2 103 81 46.4-23.4 77.6-52.2 89.2-81.8-42.4-73.8-190-127.6-357-127.6z" />
<glyph unicode="&#xe923;" glyph-name="casino" d="M1024 402.8c0 140.8-116.6 257-260.6 260.4 1.6 12 2.6 24.2 2.6 36.4 0 143.6-119.8 260.4-267 260.4-147 0-266.8-116.8-266.8-260.4 0-17 1.8-34.2 5-50.8-133.2-14.4-237.2-127.6-237.2-258.8 0-143.6 119.8-260.4 267-260.4 80 0 156.8 35.8 207 96-21-94.8-84-212.8-260.4-259.4l-7.4-2 3.8-28.2h608.6l3.2 28.4-7.4 1.8c-8 2-193.8 49.8-253.6 260.2 50-52.6 122.4-83.8 196.2-83.8 147.2 0 267 116.6 267 260.2z" />
<glyph unicode="&#xe924;" glyph-name="gift" d="M64 416.2v-384c0-35.4 28.8-64 64-64h320v448h-384zM960 672.2h-202.4c14.6 10 27 19.8 35.8 28.6 51.6 52 51.6 136.4 0 188.2-50.2 50.6-137.6 50.4-187.8 0-27.8-27.8-101.4-141.2-91.2-216.8h-4.6c10.2 75.8-63.4 189-91.2 216.8-50.2 50.4-137.6 50.4-187.8 0-51.6-52-51.6-136.4 0-188.2 8.8-8.8 21.2-18.6 35.8-28.6h-202.6c-35.2 0-64-28.8-64-64v-96c0-17.6 14.4-32 32-32h416v128h128v-128h416c17.6 0 32 14.4 32 32v96c0 35.2-28.6 64-64 64zM444.2 674.4c0 0-2.6-2.2-11.8-2.2-44.2 0-128.6 46-156.2 73.8-26.8 27-26.8 71 0 98 13 13 30.2 20.2 48.6 20.2 18.2 0 35.4-7.2 48.4-20.2 43-43.4 86-154.2 71-169.6zM591.6 672.2c-9 0-11.8 2-11.8 2.2-15 15.4 28 126.2 71.2 169.6 25.8 26 71 26.2 97 0 26.8-27 26.8-71 0-98-27.8-27.8-112.2-73.8-156.4-73.8zM576 416.2v-448h320c35.4 0 64 28.6 64 64v384h-384z" />
<glyph unicode="&#xe925;" glyph-name="minus" d="M512 960c-282.4 0-512-229.6-512-512s229.6-512 512-512 512 229.6 512 512-229.6 512-512 512zM758.2 408.6h-492.4c-21.8 0-39.4 17.6-39.4 39.4s17.6 39.4 39.4 39.4h492.4c21.8 0 39.4-17.6 39.4-39.4s-17.8-39.4-39.4-39.4z" />
<glyph unicode="&#xe926;" glyph-name="news-small" d="M896 736v128h-896v-704c0 0 0-128 128-128h800c0 0 96 2 96 128v576h-128zM128 96c-64 0-64 64-64 64v640h768v-640c0-29.4 9-49.8 21.6-64h-725.6zM128 672h640v-64h-640v64zM480 288h224v-64h-224v64zM480 416h288v-64h-288v64zM480 544h288v-64h-288v64zM128 544h288v-320h-288v320z" />
<glyph unicode="&#xe927;" glyph-name="play" d="M512 960c-282.8 0-512-229.2-512-512s229.2-512 512-512 512 229.2 512 512-229.2 512-512 512zM320 192v512l448-256-448-256z" />
<glyph unicode="&#xe928;" glyph-name="plus" d="M512 960c-282.4 0-512-229.6-512-512s229.6-512 512-512 512 229.6 512 512-229.6 512-512 512zM779.2 414.6h-233.8v-233.8c0-18.4-15-33.4-33.4-33.4s-33.4 15-33.4 33.4v233.8h-233.8c-18.4 0-33.4 15-33.4 33.4s15 33.4 33.4 33.4h233.8v233.8c0 18.4 15 33.4 33.4 33.4s33.4-15 33.4-33.4v-233.8h233.8c18.4 0 33.4-15 33.4-33.4s-15-33.4-33.4-33.4z" />
<glyph unicode="&#xe929;" glyph-name="poker" d="M512 960c-282.8 0-512-229.2-512-512s229.2-512 512-512c282.8 0 512 229.2 512 512s-229.2 512-512 512zM767 827l-32.6-48.2c-43.4 29.2-93 50.2-146.2 60.4l11.4 57c60-11.4 116.8-35 167.4-69.2zM538.4 220.8v-59.4h-48.4v59.2c-34.6 3.8-67 17-91.4 39.8-24.4 22.6-35.6 56-34.8 100l1.2 1.6h85.4c0-27.6 6.2-46 18.4-57.6s28-17.4 46.8-17.4c18.2 0 32.2 4.8 41.8 14.6 9.6 9.6 14.6 22.8 14.6 39s-4.6 29.4-14 39.6c-9.2 10.2-25.2 19.6-47.8 28.4-44.4 16.2-77.2 34.2-98.8 54-21.4 19.8-32.2 47.8-32.2 84 0 33.6 10 61 31.4 82.6 21.4 21.4 51.4 34.2 86 38v64.2h48.4v-64.8c34.6-5.2 63.2-19.8 83.4-44 20-24.2 30.2-55.2 29.8-93.8l-0.6-1.2h-85.4c0 24.2-4.8 41.4-14.6 54.2-9.6 12.8-23 19-39.8 19-17.2 0-30-5-38.4-15-8.4-9.8-12.6-23-12.6-39.4 0-15.6 4.4-28.2 13.4-38 8.8-9.6 25.2-19.2 49-28.6 44.2-17.4 76.8-36 98.2-55.8 21.2-19.8 32-47.4 32-83 0-34.8-11.6-62.6-33-83.4-21.2-20.8-50-33-88-36.8zM424.4 896.4l11-57.2c-53.2-10.4-102.8-31.4-146.2-60.6l-32.2 48.4c50.6 34.2 107.4 57.8 167.4 69.4zM133 703l48.2-32.6c-29.2-43.4-50.2-92.8-60.4-146.2l-57 11.4c11.4 60 35 116.8 69.2 167.4zM133 193c-34.2 50.6-57.8 107.4-69.4 167.4l57.2 11c10.4-53.2 31.4-102.8 60.6-146.2l-48.4-32.2zM257 69l32.6 48.2c43.4-29.2 93-50.2 146.2-60.4l-11.4-57c-60 11.4-116.8 35-167.4 69.2zM599.6-0.4l-11 57.2c53.2 10.4 102.8 31.4 146.2 60.6l32.2-48.4c-50.6-34.2-107.4-57.8-167.4-69.4zM891 193l-48.2 32.6c29.2 43.4 50.2 93 60.4 146.2l57-11.4c-11.4-60-35-116.8-69.2-167.4zM903.2 524.6c-10.4 53.2-31.4 102.8-60.6 146.2l48.4 32.2c34.2-50.6 57.8-107.4 69.4-167.4l-57.2-11z" />
<glyph unicode="&#xe92a;" glyph-name="roulette" d="M1024 491c0 141.2-114.8 256-256 256h-512c-141.2 0-256-114.8-256-256 0-14.6 1.2-28.8 3.6-42.6-2.4-14-3.6-28.2-3.6-42.8 0-141.2 114.8-256 256-256h512c141.2 0 256 114.8 256 256 0 14.6-1.2 28.8-3.6 42.6 2.4 14 3.6 28.2 3.6 42.8zM768 192.4h-512c-91.6 0-169.8 58-200 139 47-58.8 119.2-96.4 200-96.4h512c80.8 0 153 37.6 200 96.4-30.2-81.2-108.4-139-200-139zM768 277.6h-512c-117.6 0-213.4 95.8-213.4 213.4s95.8 213.4 213.4 213.4h512c117.6 0 213.2-95.8 213.2-213.4 0.2-117.6-95.6-213.4-213.2-213.4zM256 683c-105.8 0-192-86.2-192-192s86.2-192 192-192c105.8 0 192 86.2 192 192s-86.2 192-192 192zM403.8 512.4h-87.4c-0.8 2.2-1.6 4.2-2.6 6.2l61.8 61.8c14.6-19.6 24.6-42.8 28.2-68zM277.4 638.8c25.2-3.6 48.6-13.6 68-28.2l-61.8-61.8c-2 1-4.2 1.8-6.2 2.6v87.4zM234.6 638.8v-87.4c-2.2-0.8-4.2-1.6-6.2-2.6l-61.8 61.8c19.6 14.6 42.8 24.6 68 28.2zM136.4 580.4l61.8-61.8c-1-2-1.8-4-2.6-6.2h-87.4c3.6 25.2 13.6 48.4 28.2 68zM108.2 469.6h87.4c0.8-2.2 1.6-4.2 2.6-6.2l-61.8-61.8c-14.6 19.6-24.6 42.8-28.2 68zM234.6 343.2c-25.2 3.6-48.6 13.6-68 28.2l61.8 61.8c2-1 4.2-1.8 6.2-2.6v-87.4zM256 469.6c-11.8 0-21.4 9.6-21.4 21.4s9.6 21.4 21.4 21.4c11.8 0 21.4-9.6 21.4-21.4s-9.6-21.4-21.4-21.4zM277.4 343.2v87.4c2.2 0.8 4.2 1.6 6.2 2.6l61.8-61.8c-19.6-14.6-42.8-24.6-68-28.2zM375.6 401.6l-61.8 61.8c1 2 1.8 4.2 2.6 6.2h87.4c-3.6-25.2-13.6-48.4-28.2-68zM874.8 640.4h-384c-11.8 0-21.4-9.6-21.4-21.4 0-0.2 0-0.2 0-0.4v0-255.2c0-0.2 0-0.2 0-0.4 0-11.8 9.6-21.4 21.4-21.4h384c11.8 0 21.4 9.6 21.4 21.4 0 0.2 0 0.2 0 0.4v255.2c0 0.2 0 0.2 0 0.4-0.2 11.8-9.8 21.4-21.4 21.4zM597.4 384.4h-85.4v85.4h85.4v-85.4zM597.4 533.6c0 5.4-2 11-6.2 15-8.4 8.4-21.8 8.4-30.2 0s-8.4-21.8 0-30.2c8.4-8.4 21.8-8.4 30.2 0 4 4.4 6.2 9.8 6.2 15.2v-21.4h-85.4v85.4h85.4v-64zM725.4 384.4h-85.4v85.4h85.4v-85.4zM725.4 512.4h-85.4v85.2h85.4v-85.2zM853.4 384.4h-85.4v85.4h85.2v-85.4zM853.4 512.4h-85.4v85.2h85.2v-85.2zM548.4 570c-8.4 8.4-21.8 8.4-30.2 0s-8.4-21.8 0-30.2c8.4-8.4 21.8-8.4 30.2 0s8.4 22 0 30.2zM825.8 420.8c-8.4 8.4-21.8 8.4-30.2 0s-8.4-21.8 0-30.2c8.4-8.4 21.8-8.4 30.2 0 8.2 8.2 8.2 21.8 0 30.2zM825.8 548.8c-8.4 8.4-21.8 8.4-30.2 0s-8.4-21.8 0-30.2c8.4-8.4 21.8-8.4 30.2 0 8.2 8.4 8.2 21.8 0 30.2zM697.8 442c-8.4 8.4-21.8 8.4-30.2 0-8.2-8.4-8.2-21.8 0-30.2 8.4-8.4 21.8-8.4 30.2 0 8.2 8.4 8.2 22 0 30.2z" />
<glyph unicode="&#xe92b;" glyph-name="slots" d="M746.6 554.4h-682.6c-35.2 0-64-28.8-64-64v-256c0-35.2 28.8-64 64-64h682.6c35.2 0 64 28.8 64 64v256c0 35.2-28.6 64-64 64zM211 437.8c-19.6-38.2-48.6-102.2-58.2-140.2 10-1.8 17.8-10 17.8-20.6 0-11.8-9.6-21.4-21.4-21.4h-42.6c-11.8 0-21.4 9.6-21.4 21.4s9.6 21.4 21.4 21.4h2.8c7.8 38.4 31.8 93.4 48.2 128h-29.6c0-11.8-9.6-21.4-21.4-21.4s-21.4 9.6-21.4 21.4v21.4c0 11.8 9.6 21.4 21.4 21.4h85.4c7.4 0 14.4-3.8 18.2-10.2 4-6.6 4.2-14.4 0.8-21.2zM298.6 234.4c0-11.8-9.6-21.4-21.4-21.4s-21.4 9.6-21.4 21.4v256c0 11.8 9.6 21.4 21.4 21.4s21.4-9.6 21.4-21.4v-256zM467 437.8c-19.6-38.2-48.6-102.2-58.2-140.2 10-1.8 17.8-10 17.8-20.6 0-11.8-9.6-21.4-21.4-21.4h-42.6c-11.8 0-21.4 9.6-21.4 21.4s9.6 21.4 21.4 21.4h2.8c7.8 38.4 31.8 93.4 48.2 128h-29.6c0-11.8-9.6-21.4-21.4-21.4s-21.4 9.6-21.4 21.4v21.4c0 11.8 9.6 21.4 21.4 21.4h85.4c7.4 0 14.4-3.8 18.2-10.2 4-6.6 4.2-14.4 0.8-21.2zM554.6 234.4c0-11.8-9.6-21.4-21.4-21.4s-21.4 9.6-21.4 21.4v256c0 11.8 9.6 21.4 21.4 21.4s21.4-9.6 21.4-21.4v-256zM723 437.8c-19.6-38.2-48.6-102.2-58.2-140.2 10-1.8 17.8-10 17.8-20.6 0-11.8-9.6-21.4-21.4-21.4h-42.6c-11.8 0-21.4 9.6-21.4 21.4s9.6 21.4 21.4 21.4h2.8c7.8 38.4 31.8 93.4 48.2 128h-29.6c0-11.8-9.6-21.4-21.4-21.4s-21.4 9.6-21.4 21.4v21.4c0 11.8 9.6 21.4 21.4 21.4h85.4c7.4 0 14.4-3.8 18.2-10.2 4-6.6 4.2-14.4 0.8-21.2zM960 639.6c-11.8 0-21.4-9.6-21.4-21.4v-234.6h-64c-11.8 0-21.4-9.6-21.4-21.4s9.6-21.4 21.4-21.4h85.4c11.8 0 21.4 9.6 21.4 21.4v256c0 12-9.6 21.4-21.4 21.4zM1024 661c0-35.346-28.654-64-64-64s-64 28.654-64 64c0 35.346 28.654 64 64 64s64-28.654 64-64zM789.4 511.6c-11.8 0-21.4-9.6-21.4-21.4s9.6-21.4 21.4-21.4v-213.4c-11.8 0-21.4-9.6-21.4-21.4s9.6-21.4 21.4-21.4h21.4v299h-21.4zM853.4 507.8v-290.8c24.8 8.8 42.6 32.2 42.6 60v170.6c0 27.8-17.8 51.4-42.6 60.2z" />
<glyph unicode="&#xe92c;" glyph-name="timer" horiz-adv-x="887" d="M238.8 812.2c-17.4 15-40 24-64.6 24-54.8 0-99.2-44.4-99.2-99.2 0-14.8 3.4-28.8 9.2-41.6 43 48.8 95.4 88.8 154.6 116.8zM443.4-64c244.8 0 443.2 198.4 443.2 443.2 0 219.2-159.2 401.2-368.2 436.8v83.2h38.4c12.8 0 23 13.6 23 30.4s-10.4 30.4-23 30.4h-227c-12.8 0-23-13.6-23-30.4s10.4-30.4 23-30.4h38.4v-83c-37.4-6.4-73-17.4-106.6-32.4-60.6-27.2-114-67.8-156.4-117.8-65.6-77.4-105.2-177.4-105.2-286.6 0-245 198.4-443.4 443.4-443.4zM182.2 638.4c25 25.2 53.4 46.8 84.8 63.8 52.4 28.8 112.6 45.2 176.4 45.2 203 0 368-165.2 368-368.2s-165.2-368.2-368-368.2c-203 0-368.2 165.2-368.2 368.2 0 101 41 192.6 107 259.2zM220.8 156.8c14.2-14.2 29.8-27.2 46.6-38.4 8.4-5.6 17-11 26-15.8 44.6-24.2 95.8-38 150-38 6.8 0 13.6 0.2 20.2 0.6 33.4 2 65.4 9.4 95.2 21.2 12 4.6 23.4 10.2 34.6 16.2 9 4.8 17.6 10 26 15.8 16.8 11.4 32.4 24.2 46.6 38.4 57 57 92.2 135.6 92.2 222.6s-35.2 165.6-92.2 222.6c-14.2 14.2-29.8 27.2-46.6 38.4-8.4 5.6-17 11-26 15.8-11.2 6-22.8 11.4-34.6 16.2-29.8 11.8-61.8 19-95.2 21.2-6.6 0.4-13.4 0.6-20.2 0.6-54.4 0-105.4-13.8-150-38-9-4.8-17.6-10.2-26-15.8-16.8-11.4-32.4-24.2-46.6-38.4-57-57-92.2-135.6-92.2-222.6s35.2-165.8 92.2-222.6zM443.4 629.8v-235.8l-237-91.2c-42.2 163.6 72.6 327 237 327z" />
<glyph unicode="&#xe92d;" glyph-name="user" horiz-adv-x="832" d="M801.8 249c-21.4 35.8-51.6 60.8-87 72.2l-100 32c-3.2 1-6.6 1-9.8 0l-15.8 23.8c-4.8 7.2-14.2 9.2-21.6 4.8l-7.8-4.6v22.8c0 2.4-0.6 4.8-1.6 6.8 49.8 44 81.6 110.8 81.6 185.2v55.6c40 112 39.6 241 12.4 274.4 0 0-0.2 0.2-0.2 0.2s0 0 0 0 0 0-0.2 0.2c-0.2 0.4-0.6 0.6-1 1-0.2 0.2-0.4 0.4-0.6 0.6s-0.4 0.4-0.6 0.4c-0.2 0.2-0.6 0.4-0.8 0.6-0.2 0-0.2 0.2-0.4 0.2-0.2 0.2-0.6 0.4-1 0.6-0.2 0-0.2 0.2-0.4 0.2-0.2 0.2-0.6 0.4-1 0.4-0.2 0-0.4 0.2-0.6 0.2-0.2 0.2-0.6 0.2-0.8 0.4-0.2 0-0.4 0.2-0.6 0.2s-0.4 0.2-0.8 0.2c-0.2 0-0.6 0.2-0.8 0.2s-0.4 0-0.6 0.2c-0.2 0-0.6 0-0.8 0.2-0.2 0-0.4 0-0.8 0-0.2 0-0.6 0-0.8 0-0.4 0-0.6 0-1 0-0.2 0-0.4 0-0.6 0-0.4 0-1-0.2-1.4-0.2 0 0 0 0-0.2 0 0 0 0 0 0 0s0 0 0 0c-37.4-7.2-81.8 3.2-128.8 14.2-74.2 17.4-150.8 35.4-210.4-14.4-3.2 0.2-6.4 0.4-9.6 0.4-70.6 0-128-57.4-128-128 0-75.4 27-162.4 32.4-178.6v-29.4c0-74.4 31.6-140.8 81.4-185-1-2.2-1.6-4.6-1.6-7v-23l-7.8 4.6c-7.4 4.4-16.8 2.2-21.6-4.8l-15.8-23.8c-3 1-6.4 1-9.8 0l-100-32c-35.4-11.4-65.6-36.2-87-72.2-19.4-32.4-30-71.6-30-110v-138.8c0-35.2 28.8-64 64-64h192c0 0 0 0 0 0s0 0 0 0h319.8c0 0 0 0 0 0s0 0 0 0h192c35.2 0 64 28.8 64 64v138.8c0.6 38.6-10.2 77.6-29.6 110.2zM267.2-32l-119.8 329.2 60.8 19.4c0.4-2.4 1.6-4.8 3.2-6.8l20.8-26.2c-5.4-6.2-8.4-14.2-8.4-22.6v-106.2c0-11.4 5.6-22 15-28.4 5.8-4 12.8-6.2 19.8-6.2 4 0 8.2 0.8 12.2 2.2l95.2 35.6c8.6-8.8 20.8-14.2 34-14.2h32c13.2 0 25.4 5.4 34 14.2l95.2-35.6c4-1.4 8-2.2 12.2-2.2 7 0 13.8 2 19.8 6.2 9.4 6.4 15 17.2 15 28.4v106.2c0 6.6-2 13-5.4 18.6l19.2 32c1 1.6 1.6 3.2 1.8 5l60.8-19.4-119.8-329.2h-297.6zM95.8 274.6c7 5 14.2 9.2 21.4 12.4l116-319h-137.2v304c0 0.8-0.2 1.8-0.2 2.6zM352 224.2v0l-32-0.2c-8.8 0-16-7.2-16-16s7.2-16 16-16h32v-4.8l-92.4-34.6c-0.8-0.4-1.6-0.2-2.4 0.4s-1.2 1.2-1.2 2.2v106.2c0 1 0.4 1.6 1.2 2.2 0.4 0.4 1 0.4 1.4 0.4s0.6 0 1-0.2l92.4-34.6v-5zM400 240.2h32c8.8 0 16-7.2 16-16v-32c0-8.8-7.2-16-16-16h-32c-8.8 0-16 7.2-16 16v32c0 8.8 7.2 16 16 16zM572.4 263.8c0.8 0.4 1.6 0.2 2.4-0.4s1.2-1.2 1.2-2.2v-106.2c0-1-0.4-1.6-1.2-2.2s-1.6-0.6-2.4-0.4l-92.4 34.8v4.8h32c8.8 0 16 7.2 16 16s-7.2 16-16 16h-32v5.2l92.4 34.6zM714.8 287c7.2-3.2 14.4-7.4 21.4-12.4-0.2-0.8-0.2-1.6-0.2-2.6v-304h-137.2l116 319zM571.2 346.4l18-26.8-14.2-23.6c-4.6 0.2-9.2-0.4-13.8-2.2l-95.2-35.8c-5.8 5.8-13.2 10.2-21.4 12.4l126.6 76zM224.4 592v16c0 56.6 40.4 100.6 40.8 101 6 6.4 5.8 16.6-0.6 22.6s-16.6 5.8-22.6-0.6c-1.2-1.2-19-20.4-32.8-50.6-8.4 33.6-17.2 79-17.2 119.6 0 53 43 96 96 96 12.8 0 25.2-2.4 37-7.4 8.2-3.4 17.6 0.4 21 8.6 3 7.2 0.2 15.6-6.2 19.6 44.8 21.2 101.6 8 161-6 36.8-8.6 74.4-17.6 109.6-17.6 7.2 0 14.2 0.4 21 1.2 4.6-12.4 9.2-38.6 8.2-77.8-1-42.8-8.2-88.2-20.6-130.6l-29.8 43c-4.2 6-11.8 8.4-18.8 5.8-0.4-0.2-39-14.2-95.6-13.4-75.6 1-145.8 26.2-209 75.2-7 5.4-17 4.2-22.4-2.8s-4.2-17 2.8-22.4c86.2-66.8 172.4-81.4 229.6-81.8 43.4-0.4 76.8 7 93.6 11.8l38.6-55.8v-53.6c0-114.6-86-208-191.8-208s-191.8 93.2-191.8 208zM304 384.4c33-20.6 71.4-32.4 112.2-32.4 40.6 0 78.8 11.6 111.8 32v-26.2l-112-67.2-112 67.2v26.6zM260.8 346.4l126.6-76c-8.2-2.2-15.6-6.6-21.4-12.4l-95.2 35.6c-2.2 0.8-4.4 1.4-6.8 1.8l-20.2 25.4 17 25.6zM32 0v138.8c0 41.6 13 76.8 32 103.4v-274.2c-17.6 0-32 14.4-32 32zM800 0c0-17.6-14.4-32-32-32v274.2c19-26.4 32-61.8 32-103.4v-138.8zM416 128c-17.6 0-32-14.4-32-32s14.4-32 32-32 32 14.4 32 32c0 17.6-14.4 32-32 32zM416 48c-17.6 0-32-14.4-32-32s14.4-32 32-32 32 14.4 32 32-14.4 32-32 32z" />
<glyph unicode="&#xe92e;" glyph-name="chevron-left" horiz-adv-x="582" d="M548.398 926.028c14.559-14.559 14.559-33.972 0-48.531l-441.63-427.071 441.63-427.071c14.559-14.559 14.559-33.972 0-48.531s-33.972-14.559-48.531 0l-465.896 451.336c-4.853 4.853-9.706 14.559-9.706 24.265s4.853 19.412 9.706 24.265l461.043 451.336c14.559 14.559 38.825 14.559 53.384 0zM582.37-0.91v0c0-14.559-4.853-29.118-19.412-43.678-24.265-24.265-58.237-24.265-82.502 0l-461.043 451.336c-24.265 24.265-24.265 63.090 0 82.502l461.043 451.336c9.706 14.559 24.265 19.412 43.678 19.412 14.559 0 29.118-4.853 43.678-14.559 9.706-14.559 14.559-29.118 14.559-43.678v0c0-14.559-4.853-29.118-19.412-43.678l-417.365-407.659 417.365-407.659c14.559-14.559 19.412-29.118 19.412-43.678zM48.531 450.427c0-4.853 0-4.853 4.853-4.853l461.043-451.336c4.853-4.853 9.706-4.853 14.559 0 4.853 0 4.853 4.853 4.853 4.853v0c0 0 0 4.853-4.853 4.853l-456.19 446.483 456.19 441.63c4.853 4.853 4.853 9.706 4.853 9.706v0c0 0 0 4.853-4.853 4.853v0c0 4.853-4.853 4.853-4.853 4.853s-4.853 0-9.706-4.853l-465.896-456.19c0 4.853 0 0 0 0z" />
<glyph unicode="&#xe92f;" glyph-name="chevron-right" horiz-adv-x="582" d="M33.972-30.028c-14.559 14.559-14.559 33.972 0 48.531l441.63 427.071-441.63 427.071c-14.559 14.559-14.559 33.972 0 48.531s33.972 14.559 48.531 0l465.896-451.336c4.853-4.853 9.706-14.559 9.706-24.265s-4.853-19.412-9.706-24.265l-461.043-451.336c-14.559-14.559-38.825-14.559-53.384 0zM0 896.91v0c0 14.559 4.853 29.118 19.412 43.678 24.265 24.265 58.237 24.265 82.502 0l461.043-451.336c24.265-24.265 24.265-63.090 0-82.502l-461.043-451.336c-9.706-14.559-24.265-19.412-43.678-19.412-14.559 0-29.118 4.853-43.678 14.559-9.706 14.559-14.559 29.118-14.559 43.678v0c0 14.559 4.853 29.118 19.412 43.678l417.365 407.659-417.365 407.659c-14.559 14.559-19.412 29.118-19.412 43.678zM533.839 445.573c0 4.853 0 4.853-4.853 4.853l-461.043 451.336c-4.853 4.853-9.706 4.853-14.559 0-4.853 0-4.853-4.853-4.853-4.853v0c0 0 0-4.853 4.853-4.853l456.19-446.483-456.19-441.63c-4.853-4.853-4.853-9.706-4.853-9.706v0c0 0 0-4.853 4.853-4.853v0c0-4.853 4.853-4.853 4.853-4.853s4.853 0 9.706 4.853l465.896 456.19c0-4.853 0 0 0 0z" />
<glyph unicode="&#xe930;" glyph-name="diamond" horiz-adv-x="872" d="M435.8 960l-435.8-512 435.8-512 436 512z" />
<glyph unicode="&#xe931;" glyph-name="diamond-o" horiz-adv-x="872" d="M435.8 904.4l388.8-456.4-388.8-456.4-388.6 456.4 388.6 456.4zM435.8 960l-435.8-512 435.8-512 435.8 512-435.8 512z" />
<glyph unicode="&#xe932;" glyph-name="home-o" horiz-adv-x="1027" d="M1027.19 443.215l-108.461 108.461v277.533h-76.561v-200.972l-331.763 331.763-54.231-54.231-456.174-462.555h108.461v-507.215h312.623v255.202h181.832v-255.202h319.003v510.405l105.271-3.19zM845.358 9.371h-165.882v255.202h-334.953v-255.202h-162.692v507.215l331.763 331.763 331.763-331.763v-507.215z" />
<glyph unicode="&#xe933;" glyph-name="search" horiz-adv-x="1021" d="M1020.8 9.6l-348.8 348.8 73.6 73.6v310.4l-217.6 217.6h-310.4l-217.6-217.6v-310.4l217.6-217.6h310.4l73.6 73.6 345.6-352 73.6 73.6zM483.2 316.8h-224l-160 160v224l160 160h224l160-160v-224l-160-160z" />
<glyph unicode="&#xe934;" glyph-name="menu-search" horiz-adv-x="1357" d="M260.267 439.467v55.467h-260.267v-102.4h307.2zM426.667 951.467h-426.667v-98.133h328.533zM0 38.4v-102.4h1186.133l-102.4 102.4zM960 418.133l59.733 59.733v281.6l-204.8 200.533h-281.6l-200.533-200.533v-281.6l200.533-200.533h281.6l59.733 59.733 401.067-401.067 81.067 81.067-396.8 401.067zM896 524.8l-128-132.267h-183.467l-132.267 132.267v187.733l132.267 132.267h183.467l128-132.267v-187.733z" />
<glyph unicode="&#xe935;" glyph-name="home" horiz-adv-x="1205" d="M481.882-64v361.412h240.941v-361.412h301.176v481.882h180.706l-602.353 542.118-602.353-542.118h180.706v-481.882h301.176z" />
<glyph unicode="&#xe936;" glyph-name="no-account" d="M588.8 960h-211.2l-150.4-150.4v-211.2l150.4-150.4h211.2l150.4 150.4v211.2zM470.4 64l-9.6 9.6v243.2l134.4 134.4h-336l-259.2-256v-259.2h598.4zM848 393.6l115.2-115.2v-163.2l-115.2-115.2h-163.2l-115.2 115.2v163.2l115.2 115.2h163.2zM873.6 451.2h-211.2l-150.4-150.4v-211.2l147.2-150.4h211.2l150.4 150.4v211.2l-147.2 150.4zM889.6 3.2v0l-329.6 326.4 41.6 41.6 329.6-326.4z" />
<glyph unicode="&#xe937;" glyph-name="mobile-casinos" horiz-adv-x="711" d="M264.591 338.040c13.745-6.872 48.107-10.309 75.597-3.436l-17.181-37.799c41.235 0 65.289 0 79.034 0l-17.181 37.799c24.054-6.872 58.416-6.872 75.597 3.436 30.926 13.745 48.107 41.235 48.107 75.597-10.309 68.725-134.013 116.832-151.195 168.376-17.181-48.107-140.886-99.651-140.886-168.376 0-37.799 17.181-61.852 48.107-75.597zM584.161 960h-457.020c-68.725 0-127.141-58.416-127.141-127.141v-769.718c0-68.725 58.416-127.141 127.141-127.141h460.456c34.362 0 68.725 13.745 92.779 37.799 20.617 27.49 34.362 58.416 30.926 89.342v769.718c0 68.725-58.416 127.141-127.141 127.141zM642.577 76.886h-573.852v721.611h573.852v-721.611z" />
<glyph unicode="&#xe938;" glyph-name="latest-featured-casinos" horiz-adv-x="1220" d="M631.233 805.699v84.164h154.301v70.137h-350.685v-70.137h147.288v-84.164c-329.644-7.014-582.137-133.26-582.137-294.575v-266.521c0-175.342 266.521-308.603 610.192-308.603s610.192 133.26 610.192 308.603v266.521c0 161.315-252.493 287.562-589.151 294.575zM610.192 279.671c-322.63 0-540.055 119.233-540.055 231.452 0 105.205 203.397 224.438 512 224.438v-56.11h-56.11v-28.055c-175.342-21.041-301.589-105.205-301.589-203.397h70.137c0 56.11 91.178 119.233 231.452 133.26v-217.425h168.329v217.425c140.274-21.041 231.452-77.151 231.452-133.26h70.137c0 105.205-126.247 182.356-301.589 203.397v35.068h-63.123v49.096c308.603-7.014 519.014-119.233 519.014-224.438 0-112.219-217.425-231.452-540.055-231.452z" />
<glyph unicode="&#xe939;" glyph-name="check-2" horiz-adv-x="1182" d="M1173.662 833.969c7.877 0 7.877-7.877 7.877-15.754 0 0 0-7.877-7.877-15.754l-708.923-850.708c-7.877-7.877-15.754-15.754-23.631-15.754s-15.754 7.877-31.508 15.754l-393.846 362.338-7.877 7.877c-7.877 7.877-7.877 7.877-7.877 15.754 0 0 0 7.877 7.877 15.754l7.877 7.877c47.262 47.262 86.646 86.646 118.154 118.154 15.754 7.877 23.631 15.754 23.631 15.754 7.877 0 15.754-7.877 31.508-15.754l228.431-204.8 567.138 685.292c0 0 7.877 7.877 15.754 7.877s15.754 0 23.631-7.877l149.662-126.031z" />
<glyph unicode="&#xe93a;" glyph-name="person-bubble" horiz-adv-x="819" d="M409.6 960c-194.56 0-358.4-133.12-399.36-317.44s51.2-373.76 225.28-455.68c25.6-10.24 40.96-30.72 51.2-51.2l81.92-174.080c5.12-15.36 20.48-25.6 40.96-25.6 15.36 0 30.72 10.24 40.96 25.6l81.92 174.080c10.24 20.48 30.72 40.96 51.2 51.2 174.080 81.92 271.36 271.36 225.28 455.68-40.96 184.32-204.8 317.44-399.36 317.44zM409.6 852.48c71.68 0 128-56.32 128-128s-56.32-128-128-128-128 56.32-128 128c0 71.68 56.32 128 128 128zM583.68 340.48h-343.040c-10.24 0-20.48 10.24-20.48 20.48 0 107.52 87.040 194.56 194.56 194.56s194.56-87.040 194.56-194.56c0-5.12 0-10.24-5.12-15.36-10.24 0-15.36-5.12-20.48-5.12z" />
<glyph unicode="&#xe93b;" glyph-name="halloween" horiz-adv-x="891" d="M439.765-64l-294.024 53.806-23.725 19.065-122.016 294.024v24.149l122.016 294.024 17.37 17.37 294.024 122.016h24.149l294.024-122.016 17.37-17.37 122.016-294.024v-24.149l-122.016-294.024-23.725-19.065-294.024-53.806h-11.439zM174.127 49.119l271.57-49.569 271.57 49.569 110.153 266.062-111.848 269.875-269.875 111.848-270.299-111.848-111.848-269.875 110.577-266.062zM377.486 713.003l-11.863 116.508 6.355 22.454 75.412 100.409 42.79 7.626 74.565-48.722 6.355-47.451-47.451-53.382 8.050-91.512-63.55-5.508-9.321 105.493 8.050 23.725 32.199 35.588-18.641 12.286-49.993-66.939 10.592-104.222zM435.528 27.935l-31.351 9.744-20.336 41.096 17.37 49.145-32.622 6.779c-3.813-13.981-8.897-30.928-13.557-47.027l-40.248-21.607-32.622 10.592-16.523 12.286-122.016 178.787 33.893 48.722 140.657-34.741 125.829-12.286 46.603 6.779 36.012-27.115 5.084-38.977 28.809 5.931-2.966 40.672 27.115 33.47 16.523 2.542 107.611 24.149 33.893-47.874-101.256-164.382-16.099-13.134-170.314-63.55h-19.489zM353.761 202.909l97.019-20.336 23.302-41.943-15.676-44.061 135.997 50.84 7.202 11.863-89.393-18.641-38.13 26.691-5.508 40.672-18.641-2.966h-7.626l-132.184 13.557-4.66 0.847-61.855 15.252 61.855-90.664c5.931 20.76 10.592 36.859 10.592 36.859l37.706 22.031zM624.060 232.142l2.118-33.046 24.149 38.977-26.267-5.931zM308.429 346.532l-126.676 121.168 26.691 54.229 212.68-31.775 18.218-53.382-86.004-89.393-44.909-0.847zM297.837 444.823l31.775-30.080 21.183 22.454-52.958 7.626zM248.963 503.499l89.894 208.075 58.339-25.204-89.894-208.075-58.339 25.204zM195.861 292.261l31.75 152.205 62.209-12.977-31.75-152.205-62.209 12.977zM196.133 194.975l61.415 16.345 53.939-202.668-61.415-16.345-53.939 202.668zM588.895 346.532l-44.909 0.847-86.004 89.393 18.218 53.382 212.68 31.775 26.691-54.229-126.676-121.168zM546.529 436.773l21.183-22.454 31.775 30.080-52.958-7.626zM500.324 686.505l58.339 25.204 89.894-208.075-58.339-25.204-89.894 208.075zM607.581 431.647l62.215 12.964 31.719-152.22-62.215-12.964-31.719 152.22zM585.121 6.491l57.752 216.998 61.415-16.345-57.752-216.998-61.415 16.345z" />
<glyph unicode="&#xe93c;" glyph-name="chevron-new-bottom" horiz-adv-x="1659" d="M194.56 960l634.88-634.88 634.88 634.88 194.56-194.56-829.44-829.44-829.44 829.44 194.56 194.56z" />
<glyph unicode="&#xe93d;" glyph-name="chevron-new-left" horiz-adv-x="632" d="M632.099 839.901l-391.901-391.901 391.901-391.901-120.099-120.099-512 512 512 512 120.099-120.099z" />
<glyph unicode="&#xe93e;" glyph-name="chevron-new-right" horiz-adv-x="632" d="M0 56.099l391.901 391.901-391.901 391.901 120.099 120.099 512-512-512-512-120.099 120.099z" />
<glyph unicode="&#xe93f;" glyph-name="chevron-new-top" horiz-adv-x="1659" d="M1464.32-64l-634.88 634.88-634.88-634.88-194.56 194.56 829.44 829.44 829.44-829.44-194.56-194.56z" />
<glyph unicode="&#xe940;" glyph-name="christmas-tree" horiz-adv-x="696" d="M140.586 319.763c-11.779 5.699-22.798 10.639-33.437 16.338-17.858 9.119-21.658 25.837-9.499 41.796 36.476 47.115 72.953 93.851 109.429 140.586 1.52 1.9 3.040 3.8 4.56 6.459-10.259 3.42-20.138 6.839-29.637 10.259-19.378 7.219-24.698 25.837-12.159 42.176 52.435 67.633 104.87 134.887 157.305 202.52 12.159 15.958 30.777 15.578 42.936-0.38 52.435-67.253 104.87-134.507 156.925-201.76 12.919-16.718 7.599-34.957-12.159-42.556-9.499-3.42-18.998-6.839-29.637-10.259 1.9-2.28 3.42-4.56 4.94-6.839 36.096-46.355 72.193-93.091 108.289-139.446 13.299-17.098 9.499-33.437-9.499-42.936-10.639-5.319-21.278-10.259-32.677-15.578 16.718-21.658 33.057-42.936 49.775-63.834 22.418-28.877 44.836-57.754 67.253-86.632 12.919-16.718 9.879-31.917-7.979-42.556-78.652-46.355-163.384-74.473-254.195-83.972-7.599-0.76-15.578-1.52-23.938-2.28 0-21.278 0-42.176 0-64.214 2.66 0 5.319 0 7.979 0 26.217 0 52.435 0 78.272 0 9.879 0 15.578-4.94 15.958-12.539 0-7.979-5.699-12.919-15.578-12.919-91.191 0-182.762 0-273.953 0-9.119 0-14.819 4.94-14.819 12.919 0 7.599 5.699 12.539 14.819 12.539 26.217 0 52.435 0 78.272 0 2.66 0 5.319 0 8.739 0 0 22.418 0 44.076 0 65.734-18.618 3.040-36.856 5.319-54.715 8.739-71.813 13.299-139.446 39.136-202.14 76.753-16.718 9.879-19.758 25.837-7.599 41.036 37.236 48.255 74.853 96.131 112.089 144.386 2.28 1.14 3.8 3.42 6.079 6.459zM655.816 150.679c-37.236 47.495-74.093 95.371-111.329 143.246-1.9-1.52-3.42-2.66-4.94-3.8-33.817-27.357-69.913-50.155-108.289-69.153-103.73-50.535-213.919-73.713-328.668-79.412-13.679-0.76-27.357-1.14-42.176-1.52 183.522-104.49 418.339-98.79 595.402 10.639zM128.427 353.959c151.605-69.913 302.071-68.013 452.916 5.319-34.577 44.456-68.393 88.151-102.21 131.467-97.271-96.511-216.959-134.887-350.706-136.787zM513.71 301.524c-0.38 0.76-0.76 1.14-0.76 1.9-1.14-0.38-2.28-0.76-3.42-1.14-37.996-12.159-77.132-19.758-116.649-23.178-75.233-6.079-148.565 3.42-219.999 28.497-5.319 1.9-7.979 0.76-11.399-3.42-33.817-44.076-68.013-87.771-102.21-131.847-1.52-1.9-2.66-3.8-4.94-7.219 166.804 3.42 322.968 35.717 459.375 136.407zM132.227 380.557c128.047 2.28 240.137 38.756 330.568 129.947-2.28 7.219-6.459 6.839-11.399 5.699-66.494-14.439-132.607-15.578-199.101-1.14-10.259 2.28-15.578 0.38-22.038-7.979-31.537-41.796-64.214-83.212-98.030-126.528zM201 555.719c102.97-35.337 205.18-33.817 307.77 3.8-27.737 35.717-55.095 70.673-82.452 106.010-59.274-70.673-134.507-105.63-225.318-109.809zM207.46 583.837c0.38-0.76 0.38-1.14 0.76-1.9 12.539 1.52 25.078 2.66 37.616 4.94 64.974 12.159 118.548 43.696 161.104 94.611 3.040 3.8 3.040 6.079 0 9.499-9.879 12.539-19.758 25.078-29.637 37.616-9.119 11.779-18.618 23.938-28.497 36.476-47.495-60.414-94.611-120.828-141.346-181.242zM314.229 39.35c0-21.278 0-42.176 0-63.074 15.958 0 31.157 0 47.115 0 0 20.898 0 41.796 0 63.074-15.958 0-31.157 0-47.115 0zM473.814-64h-273.953c-17.478 0-30.017 11.779-30.017 28.117 0 15.958 12.539 27.737 30.017 27.737h71.813v37.616c-2.66 0.38-4.94 0.76-7.599 1.14-11.399 1.52-23.178 3.42-34.577 5.699-72.953 13.679-142.486 39.896-207.080 78.652-15.199 9.119-20.138 20.518-21.658 28.877s-1.14 20.898 10.259 34.577c18.238 23.938 37.236 47.875 55.855 71.813 16.718 21.278 33.437 42.936 50.155 64.214-5.699 2.66-11.019 5.319-16.338 8.359-12.539 6.459-20.898 16.338-23.558 28.497-2.66 11.779 0.76 24.698 9.119 36.096 34.197 44.076 68.393 87.771 101.45 130.327-3.42 1.14-6.839 2.28-9.879 3.42-14.059 5.319-23.938 15.199-27.357 27.737s-0.38 26.217 8.359 37.996c26.217 33.817 52.435 67.633 78.652 101.45s52.435 67.253 78.652 101.070c8.739 11.399 20.518 17.478 33.057 17.478 0 0 0 0 0 0 12.919 0 25.078-6.459 33.817-18.238l1.9-2.66c50.915-65.354 103.35-132.607 155.025-199.101 9.119-11.779 12.539-25.458 8.739-37.996-3.42-12.539-13.299-22.798-27.737-28.117-3.42-1.14-6.839-2.28-10.259-3.8 15.578-19.758 30.777-39.896 46.355-59.654 17.858-23.178 36.096-46.355 53.955-69.533 11.779-15.199 12.159-28.497 10.259-37.236-1.9-8.359-7.599-20.138-24.698-28.877-5.319-2.66-10.639-5.319-15.958-7.599 12.919-16.718 25.078-32.677 37.996-48.635l67.253-86.632c11.399-14.819 12.159-27.737 10.639-35.717s-6.839-19.758-22.798-29.257c-80.552-47.495-167.944-76.373-260.275-85.872-3.42-0.38-6.839-0.76-10.259-1.14v-35.337h71.053c17.858 0 30.397-11.019 31.157-26.977 0-0.38 0-0.38 0-0.76-0.76-16.338-13.299-27.737-31.537-27.737zM373.124-33.603h3.040c-0.76 0.76-1.14 1.14-1.52 1.9-0.38-0.38-1.14-1.14-1.52-1.9zM298.271-33.603h4.56c-0.76 1.14-1.52 2.28-2.28 3.42-0.38-1.14-1.52-2.28-2.28-3.42zM198.721-33.603v0 0zM329.428-8.525h16.718v32.677h-16.718v-32.677zM299.031 51.509c1.14-1.14 1.9-2.66 2.28-4.18 0.76 1.52 1.9 2.66 3.42 3.8-1.9 0.38-3.8 0.38-5.699 0.38zM372.364 49.989c0.76-0.76 1.14-1.14 1.52-1.9 0.38 0.76 0.76 1.52 1.52 2.28-1.14-0.38-1.9-0.38-3.040-0.38zM120.068 127.501c163.764-71.433 357.925-61.934 513.71 27.737-20.138 25.837-40.656 52.435-60.414 77.892-10.259 13.299-20.518 26.597-30.777 39.896-31.917-25.078-66.873-46.735-103.73-65.354-95.371-46.355-199.481-72.573-318.789-80.172zM39.516 165.878c-1.52-1.9-3.040-4.18-4.56-6.079-1.9-2.28-4.94-6.839-4.18-10.259 0.38-2.66 3.040-5.699 7.599-8.359 2.66-1.52 5.319-3.040 7.979-4.56-0.76 2.28-0.76 4.94 0 7.599s1.9 4.94 3.8 6.839c-3.42 1.14-6.839 3.8-8.739 7.219-1.52 1.9-2.28 4.56-1.9 7.599zM171.363 292.025c-22.798-29.637-45.976-59.654-68.773-88.531-5.699-7.219-11.399-14.819-17.098-22.038 139.066 6.079 252.295 34.577 349.186 87.771-13.299-2.28-26.977-3.8-40.276-4.94-75.993-6.459-150.845 3.040-223.038 27.737zM527.768 307.984c1.14-2.28 1.52-4.56 1.52-6.839 0.38 0.38 0.76 0.76 1.14 0.76 0 0 0.38 0.38 0.38 0.38 1.52 1.14 2.66 2.28 4.56 3.42 3.040 2.28 6.839 3.42 10.639 3.42l-1.52 1.9c-2.66 3.8-3.8 8.359-2.66 12.919 0 0.76 0.38 1.14 0.38 1.9-7.599-3.040-15.199-5.699-22.418-8.359 0.76-0.38 1.52-0.76 2.28-1.52 2.66-2.28 4.56-4.94 5.699-7.979zM197.201 342.94c120.828-39.896 239.377-32.677 360.585 22.038-8.739 11.399-17.478 22.418-26.217 33.817-18.238 23.178-36.096 46.355-53.955 69.533-76.373-71.053-168.704-112.469-280.413-125.388zM154.645 326.222c0.38-1.14 0.76-1.9 1.14-3.040s0.38-2.66 0.38-3.8c2.28 1.52 4.56 2.66 7.219 3.42-3.040 1.14-6.079 2.28-8.739 3.42zM117.409 378.277c-2.66-3.42-4.94-6.459-7.599-9.879-3.040-3.8-4.56-7.979-3.8-10.639 0.76-3.040 3.42-5.699 7.979-7.979-0.76 2.28-0.76 4.94-0.38 7.219 1.14 5.319 4.94 9.499 9.879 11.019-1.9 1.52-3.42 3.42-4.56 5.319-0.76 1.9-1.14 3.42-1.52 4.94zM245.076 500.625c0 0-0.76-0.76-2.66-3.040-25.078-33.437-50.915-66.114-77.892-100.69 104.49 7.219 189.981 39.516 259.895 98.41-60.034-9.499-117.409-7.979-175.163 4.56-3.040 1.14-3.8 0.76-4.18 0.76zM477.993 508.984c0-1.14-0.38-2.28-0.76-3.42 0.76 0 1.9 0 2.66 0 0 0 0.38 0 0.38 0-0.38 1.14-1.14 2.28-2.28 3.42 0.38 0 0.38 0 0 0zM224.938 532.542c0.38-0.76 0.76-1.14 1.14-1.9 0.76-1.9 1.14-3.42 1.14-5.319 2.66 1.9 5.699 3.42 8.359 4.56-3.42 0.76-6.839 1.52-10.639 2.66zM465.455 529.882c1.9-0.76 3.42-1.9 4.94-3.42 0 0.76 0.38 1.52 0.38 2.28 0.38 0.76 0.76 1.9 1.14 2.66-2.28-0.38-4.56-0.76-6.459-1.52zM276.613 551.54c69.153-12.159 137.547-7.219 207.46 15.199-7.219 9.119-14.439 18.618-21.658 27.737-12.159 15.578-24.318 31.157-36.476 47.115-41.796-44.456-91.571-74.473-149.325-90.051zM192.641 581.557c-3.42-4.56-7.219-9.119-10.639-13.679-3.040-3.8-4.18-7.979-3.42-11.019s3.8-5.699 8.739-7.599c-1.14 2.66-1.52 5.319-1.14 8.359 0.76 6.459 5.699 11.399 12.159 12.919-1.52 1.14-2.66 2.66-3.42 4.56-0.38 1.14-0.76 1.9-1.14 2.66-0.76 1.14-1.14 2.66-1.14 3.8zM194.161 576.997c0 0 0 0 0 0s0 0 0 0zM348.806 740.381c-36.096-46.355-72.573-92.711-108.289-139.066 1.14 0 1.9 0.38 3.040 0.38 59.274 11.399 107.909 39.136 147.806 84.732l-25.837 32.677c-5.319 7.219-11.019 14.059-16.718 21.278zM424.419 685.287c0-1.52-0.38-3.040-0.76-4.56 1.14 0.38 1.9 0.38 3.040 0.38 0.38 0 0.76 0 1.14 0-1.14 1.14-2.28 2.66-3.42 4.18zM305.87 812.954c2.66 14.819 5.319 28.497 6.839 41.796 0.38 3.040-1.14 7.219-3.040 9.879-9.119 10.259-18.618 20.138-28.117 30.017 11.779 1.52 24.318 3.8 36.856 5.319 6.079 0.76 9.879 3.040 12.539 9.119 4.94 11.779 11.019 23.178 17.478 35.717 6.839-13.679 12.539-25.837 18.998-37.996 1.52-2.66 5.319-5.319 8.359-6.079 13.299-2.66 26.977-4.18 40.276-6.079-8.739-9.119-16.718-18.238-25.458-26.597-5.319-4.94-7.599-9.499-5.699-17.098 3.040-12.159 4.18-24.318 6.459-37.996-13.299 6.839-25.458 12.919-37.236 19.758-4.18 2.28-7.219 2.28-11.019 0-11.779-6.459-23.938-12.539-37.236-19.758zM391.362 797.756c-2.28 0-4.94 0.38-6.839 1.52l-6.079 3.040c-10.259 5.319-20.138 10.259-29.637 15.578-5.699-3.040-11.399-6.079-17.098-9.119-6.079-3.040-12.159-6.459-18.238-9.879-5.319-2.66-11.399-2.28-16.338 1.14s-7.219 9.119-6.079 14.819l1.14 7.219c1.9 11.399 4.18 22.418 5.319 32.677 0 0 0 0 0 0-8.739 9.499-17.858 19.378-26.597 28.497-3.8 4.18-5.319 10.259-3.42 15.578s6.839 9.499 12.539 9.879c5.319 0.76 10.639 1.52 16.338 2.28 6.839 1.14 13.679 2.28 20.898 3.040 0 0 0.38 0 0.38 0s0 0 0 0c4.56 10.639 9.879 20.898 15.199 31.537l2.66 4.94c2.28 6.459 7.599 9.499 13.299 9.499s11.019-3.42 13.679-8.359c2.28-4.56 4.56-9.119 6.839-13.679 3.8-7.979 7.599-15.199 11.399-22.418 8.739-1.9 18.238-3.040 27.357-4.18 3.8-0.38 7.219-1.14 10.639-1.52 5.699-0.76 10.259-4.56 12.159-10.259 1.9-5.319 0.38-11.399-3.42-15.578-3.040-3.040-5.699-6.079-8.739-9.119-5.699-6.079-11.399-12.159-17.478-17.858-0.76-0.76-1.52-1.52-1.52-1.52s0-0.38 0-0.76c2.28-9.119 3.42-17.478 4.94-26.597 0.76-4.18 1.14-8.359 1.9-12.539 0.76-5.699-1.52-11.399-6.079-14.819-2.66-1.9-5.699-3.040-9.119-3.040zM348.806 849.431c4.18 0 8.739-1.14 12.919-3.42 0 0 0.38 0 0.38-0.38 3.42-1.9 6.459-3.8 9.879-5.699-0.38 2.28-1.14 4.56-1.52 6.839-4.56 18.238 6.459 28.497 10.259 31.917 1.52 1.52 3.040 3.040 4.56 4.56-4.18 0.76-7.979 1.52-12.159 2.28-0.38 0-0.38 0-0.76 0-7.219 1.9-14.439 7.219-17.858 13.299 0 0 0 0.38-0.38 0.38-1.9 3.8-3.8 7.219-5.699 11.019-1.14-2.66-2.28-4.94-3.42-7.599-4.94-11.019-12.919-16.718-24.698-18.238-2.66-0.38-4.94-0.76-7.599-1.14 2.66-3.040 5.699-6.079 8.359-9.119 0.38-0.38 0.76-0.76 1.14-1.14 3.42-4.94 6.839-12.539 5.699-20.518-0.38-3.8-1.14-7.979-1.52-12.159 3.040 1.52 6.459 3.42 9.499 4.94 4.18 3.040 8.359 4.18 12.919 4.18zM399.721 855.89v0 0zM297.891 856.65c0-0.38 0-0.38 0 0 0-0.38 0-0.38 0 0zM552.846 195.135c-9.119 0-16.718 7.599-16.338 16.338 0 9.119 7.599 16.338 16.718 16.338 8.739 0 15.958-7.599 15.958-15.958 0-9.119-7.599-16.718-16.338-16.718zM552.846 179.936c-8.739 0-17.098 3.42-22.798 9.879-5.699 6.079-8.739 14.059-8.739 22.038 0 17.098 14.439 31.157 31.917 31.157 16.718 0 31.157-14.439 31.157-31.157 0-17.478-14.439-31.917-31.537-31.917zM551.706 210.713c0 0 0.38-0.38 1.14-0.38 0.38 0 1.14 0.76 1.14 1.52 0 0.38-0.38 0.76-0.76 0.76-0.76 0-1.52-0.38-1.52-1.14 0-0.38 0-0.38 0-0.76 0 0 0 0 0 0zM298.271 120.662c0-9.119-7.219-16.718-16.338-16.718-8.739 0-16.338 7.599-16.338 16.338s7.219 15.958 15.958 16.338c8.739 0.38 16.718-6.839 16.718-15.958zM281.932 88.745c-17.098 0-31.537 14.439-31.537 31.537s13.299 30.777 30.397 31.537c8.359 0.38 16.718-2.66 22.798-8.739s9.499-14.059 9.499-22.418c0.38-17.478-13.679-31.917-31.157-31.917zM282.312 121.422c0 0 0 0 0 0-0.76 0-1.52-0.76-1.52-1.14s0.76-1.14 1.14-1.14c0.76 0 1.14 0.76 1.14 1.52 0 0-0.38 0.38-0.38 0.38 0 0.38-0.38 0.38-0.38 0.38zM449.116 160.938c0-9.119-7.599-16.338-16.718-15.958s-15.958 7.599-15.958 17.098c0.38 8.739 7.219 15.958 16.338 15.578 9.499 0 16.718-7.599 16.338-16.718zM433.158 129.781c-0.38 0-0.76 0-1.14 0-17.478 0.76-30.397 14.439-30.397 32.297 0 0.38 0 0.38 0 0.76 0.76 17.478 14.819 30.777 31.917 30.017 8.739 0 16.718-3.42 22.418-9.499s8.739-14.059 8.739-22.418c0-8.359-3.42-16.338-9.499-22.038-6.079-6.079-14.059-9.119-22.038-9.119zM432.018 161.698c0-1.52 1.14-1.52 1.52-1.52 0 0 0.38 0 0.76 0.38s0.38 0.38 0.38 0.38c0 0.38 0 0.38 0 0.76 0 0 0 0.38-0.38 0.38-0.38 0.38-0.76 0.38-1.52 0.38s-0.76-0.38-0.76-0.76zM477.613 383.216c-9.119 0.38-16.338 7.979-15.958 17.098s7.979 16.338 17.098 15.958c8.739-0.38 15.958-7.979 15.578-16.338 0-9.499-7.979-17.098-16.718-16.718zM478.373 368.018c-0.38 0-0.76 0-1.14 0-8.359 0.38-16.338 3.8-22.038 9.879s-8.739 14.439-8.359 22.798c0.38 8.359 3.8 16.338 9.879 22.038s14.439 8.739 22.798 8.359c8.359-0.38 16.338-4.18 22.038-10.259s8.359-13.679 7.979-21.658c0-8.739-3.8-16.718-9.879-22.798-5.699-5.319-13.299-8.359-21.278-8.359zM478.373 398.415v0 0zM478.373 401.075c0 0-0.38 0-0.76-0.38s-0.38-0.38-0.38-1.14c0 0 0-0.38 0.38-0.76 0-0.38 0.38-0.38 1.14-0.38 0.38 0 1.14 0.76 1.14 1.52 0 0.38 0 0.38 0 0.76-0.76 0-1.14 0.38-1.52 0.38 0 0 0 0 0 0zM379.963 349.4c0-8.739-7.219-16.718-16.338-16.718-8.739 0-15.958 7.219-16.338 15.958-0.38 9.119 6.839 16.718 15.958 17.098 8.739 0 16.718-7.219 16.718-16.338zM363.624 317.483c-16.718 0-30.777 13.679-31.537 30.397-0.76 17.478 12.919 32.297 30.397 33.057 0.38 0 0.38 0 0.76 0 17.478 0 31.917-14.439 31.917-31.537 0-17.478-14.439-31.917-31.537-31.917zM363.624 350.54c-0.76 0-1.14-0.76-1.14-1.14 0-0.76 0.76-1.52 1.14-1.52s1.14 0.76 1.14 1.52c0 0.38-0.38 0.76-1.14 1.14zM199.101 211.853c-9.119 0-16.338 7.219-16.338 16.338s7.599 16.338 16.718 15.958c9.119 0 15.578-7.219 15.958-15.958 0-9.499-7.219-16.718-16.338-16.338zM199.86 196.655c-0.38 0-0.76 0-1.14 0-17.098 0-31.157 14.439-31.157 31.537 0 8.739 3.42 16.718 9.499 22.418s14.439 8.739 22.798 8.739c16.718 0 30.017-13.299 30.777-30.397 0-0.38 0-0.38 0-0.76 0-8.739-3.42-17.098-9.499-23.178-5.699-5.319-13.299-8.359-21.278-8.359zM199.101 228.951c0 0-0.38 0-0.76-0.38s-0.38-0.38-0.38-0.38c0-0.76 0.76-1.14 1.9-1.14 0 0 0.38 0 0.38 0s0.38 0.38 0.38 0.76c0 0.76-0.38 1.14-0.38 1.14-0.38 0-1.14 0-1.14 0s0 0 0 0zM250.776 437.551c0-8.739-7.599-16.338-16.338-16.338s-16.338 7.599-16.338 16.338 7.599 16.338 16.338 16.338 16.338-7.219 16.338-16.338zM234.437 406.014c-17.098 0-31.537 14.439-31.537 31.537s14.439 31.537 31.537 31.537c17.478 0 31.537-14.059 31.537-31.537 0-17.098-14.439-31.537-31.537-31.537zM234.437 438.691c-0.38 0-1.14-0.76-1.14-1.14s0.76-1.14 1.14-1.14c0.38 0 1.14 0.76 1.14 1.14 0 0.76-0.38 1.14-1.14 1.14zM434.298 582.317c0-9.119-7.219-16.718-15.958-16.718-9.119 0-16.338 7.219-16.338 16.338 0 8.739 6.839 15.958 15.958 16.338 8.739 0.38 15.958-6.839 16.338-15.958zM418.339 550.4c-17.478 0-31.537 14.059-31.537 31.537 0 17.098 13.299 30.777 30.397 31.537 7.979 0.38 15.958-2.66 21.658-7.979 6.079-5.699 9.879-14.059 10.259-22.418 0-0.38 0-0.38 0-0.76 0.38-17.478-13.299-31.917-30.777-31.917zM418.719 583.077c-0.76 0-1.14-0.38-1.14-1.14s0.38-1.14 1.14-1.14c0 0 0.76 0.38 0.76 1.14-0.38 0.76-0.76 1.14-0.76 1.14zM308.15 668.948c9.119-0.38 16.338-7.979 15.958-16.718-0.38-9.119-7.979-15.958-17.098-15.578-8.739 0.38-15.578 7.599-15.578 16.338 0.38 9.119 7.599 16.338 16.718 15.958zM307.77 621.453c-0.38 0-0.76 0-1.52 0-17.098 0.76-30.017 14.439-30.017 31.537 0 0.38 0 0.38 0 0.76 0.38 8.359 3.8 15.958 9.879 21.658 6.079 6.079 14.439 9.119 22.798 8.739 8.739-0.38 16.338-4.18 22.418-10.259 5.699-6.079 8.739-14.059 8.359-22.038-0.76-17.098-14.819-30.397-31.917-30.397zM307.010 652.61c0-0.38 0.38-0.76 1.14-0.76 0.38 0 0.76 0 1.14 0.38 0.38 0 0.38 0.38 0.38 0.76 0 0-0.38 0.76-1.52 0.76-0.38 0-0.38 0-0.38 0-0.76-0.38-0.76-0.38-0.76-1.14z" />
<glyph unicode="&#xe941;" glyph-name="arrow-left1" horiz-adv-x="698" d="M63.476 466.553l533.474 439.148c12.567 10.337 32.703 10.337 45.27 0 12.553-10.344 12.553-26.92 0-37.264l-510.724-420.414 510.724-420.422c12.553-10.333 12.553-26.922 0-37.255-6.172-5.078-14.457-7.801-22.519-7.801-8.057 0-16.356 2.532-22.509 7.801l-533.485 439.142c-12.555 10.142-12.555 26.917-0.231 37.064z" />
<glyph unicode="&#xe942;" glyph-name="arrow-right" horiz-adv-x="698" d="M634.708 429.447l-533.475-439.147c-12.567-10.338-32.702-10.338-45.269 0-12.558 10.342-12.558 26.917 0 37.264l510.722 420.413-510.722 420.422c-12.558 10.335-12.558 26.92 0 37.255 6.168 5.077 14.454 7.801 22.518 7.801 8.055 0 16.352-2.534 22.508-7.801l533.485-439.142c12.553-10.142 12.553-26.917 0.233-37.064z" />
<glyph unicode="&#xe943;" glyph-name="sponsorships" d="M808.534 329.184c-20.096 41.898-91.99 100.054-161.45 156.246-38.742 31.318-75.35 60.928-98.688 84.266-5.846 5.888-14.592 7.766-22.317 4.992-14.378-5.206-23.251-9.216-30.25-12.33-10.666-4.778-14.25-6.4-28.63-7.85-6.355-0.64-12.074-4.054-15.616-9.344-30.163-45.098-61.395-41.258-82.259-34.262-6.656 2.218-7.853 5.078-8.493 7.808-4.48 18.73 18.006 62.336 47.149 91.478 69.331 69.375 105.088 86.741 180.608 52.991 85.674-38.313 171.52-68.31 172.371-68.607 11.222-3.882 23.296 2.006 27.181 13.142 3.84 11.136-2.006 23.296-13.142 27.178-0.854 0.298-84.992 29.695-168.96 67.285-97.834 43.734-151.51 14.934-228.182-61.782-29.184-29.183-68.822-88.233-58.582-131.542 4.394-18.432 17.366-32.086 36.65-38.442 48.342-15.958 92.458-0.682 125.312 42.922 13.568 2.090 20.95 5.162 32.042 10.154 4.010 1.792 8.704 3.882 14.934 6.4 24.406-22.912 57.344-49.578 92.032-77.61 62.72-50.73 133.846-108.246 149.846-141.526 7.894-16.426-0.598-27.136-6.358-32.042-8.448-7.254-20.010-9.558-26.282-5.162-6.912 4.736-15.914 5.034-23.040 0.768-7.168-4.266-11.178-12.33-10.282-20.608 1.45-13.568-10.966-21.334-16.342-24.022-13.654-6.912-27.904-5.718-33.238-0.768-5.974 5.546-14.55 7.168-22.144 4.352-7.594-2.858-12.886-9.856-13.654-17.962-1.28-13.994-11.648-27.434-25.174-32.682-6.528-2.474-16-3.968-24.49 3.798-5.29 4.778-12.63 6.611-19.498 4.947-6.954-1.706-12.544-6.739-14.976-13.44-0.81-2.131-2.646-7.251-22.614-7.251-14.208 0-39.766 9.6-52.266 17.875-14.976 9.856-108.886 79.917-189.994 147.84-11.392 9.6-31.104 30.166-48.512 48.342-15.446 16.128-29.568 30.762-36.822 36.906-9.088 7.68-22.528 6.528-30.080-2.515-7.594-9.005-6.486-22.486 2.518-30.080 6.614-5.59 19.414-19.117 33.536-33.837 19.030-19.882 38.698-40.448 51.926-51.539 79.447-66.518 174.935-138.326 193.962-150.829 15.702-10.323 49.536-24.832 75.734-24.832 21.034 0 37.206 4.822 48.426 14.253 15.018-5.846 32.086-5.888 48.512 0.512 19.414 7.507 35.37 22.656 44.416 41.002 16.81-3.584 36.054-1.066 53.546 7.722 17.11 8.618 29.482 21.802 35.626 37.206 16.982-0.896 34.474 5.12 48.938 17.536 24.496 20.947 31.235 53.542 17.072 82.941zM426.666 682.672h-192c-11.776 0-21.334-9.558-21.334-21.334s9.558-21.334 21.334-21.334h192c11.776 0 21.334 9.558 21.334 21.334s-9.558 21.334-21.334 21.334zM871.040 374.579c-6.614 9.77-19.84 12.458-29.61 5.802l-62.378-41.898c-9.77-6.57-12.374-19.84-5.802-29.61 4.138-6.102 10.88-9.43 17.75-9.43 4.051 0 8.192 1.152 11.859 3.626l62.381 41.898c9.766 6.573 12.368 19.84 5.798 29.613zM738.598 272.768c-15.274 12.032-83.584 81.962-125.824 125.994-8.15 8.534-21.674 8.832-30.166 0.64-8.534-8.15-8.79-21.674-0.64-30.166 10.966-11.434 107.69-112.256 130.176-130.006 3.882-3.072 8.576-4.566 13.184-4.566 6.272 0 12.544 2.816 16.81 8.15 7.299 9.219 5.722 22.659-3.539 29.955zM653.354 229.981c-25.558 20.438-89.77 88.662-104.278 104.448-8.022 8.704-21.462 9.216-30.166 1.28-8.662-7.978-9.258-21.504-1.28-30.166 0.768-0.81 77.398-83.539 109.056-108.883 3.926-3.117 8.662-4.653 13.312-4.653 6.23 0 12.458 2.774 16.682 7.981 7.341 9.216 5.85 22.656-3.325 29.994zM568.451 187.005c-30.422 25.642-92.675 91.904-104.835 104.918-8.064 8.618-21.587 9.088-30.163 1.024-8.621-8.064-9.046-21.546-1.024-30.166 17.491-18.73 77.056-81.878 108.502-108.416 4.010-3.37 8.874-5.034 13.738-5.034 6.058 0 12.118 2.602 16.342 7.594 7.594 9.046 6.442 22.486-2.56 30.080zM249.344 719.485c-36.566 34.646-182.784 45.868-226.73 48.47-6.058 0.298-11.648-1.706-15.914-5.76-4.268-4.010-6.7-9.642-6.7-15.53v-384c0-11.776 9.558-21.334 21.334-21.334h128c9.216 0 17.408 5.93 20.266 14.72 3.114 9.558 76.63 235.178 86.314 346.112 0.556 6.486-1.834 12.886-6.57 17.322zM133.76 383.997h-91.094v339.798c68.566-5.418 142.55-17.194 169.43-30.25-11.306-93.44-62.464-259.456-78.336-309.548zM1002.666 725.344c-167.51 0-260.438-42.88-264.32-44.672-5.546-2.602-9.686-7.424-11.392-13.27s-0.854-12.118 2.346-17.322c26.368-42.454 108.928-278.23 124.8-335.744 2.56-9.258 10.966-15.658 20.566-15.658h128c11.776 0 21.334 9.558 21.334 21.334v383.999c0 11.818-9.558 21.332-21.334 21.332zM981.331 341.344h-90.707c-20.224 65.878-79.958 237.654-113.28 308.65 32.554 11.050 102.486 30.038 203.987 32.426v-341.076z" />
<glyph unicode="&#xe944;" glyph-name="affiliate" d="M602 870c0 49.626-40.374 90-90 90s-90-40.374-90-90c0-49.626 40.374-90 90-90s90 40.374 90 90zM512 840c-16.541 0-30 13.458-30 30s13.459 30 30 30c16.541 0 30-13.458 30-30s-13.459-30-30-30zM662 628c0 82.92-67.069 152-150 152-82.918 0-150-69.070-150-152v-30h300v30zM427.117 658c12.48 35.666 46.317 62 84.883 62s72.403-26.334 84.883-62h-169.766zM962 508c0 49.626-40.374 90-90 90s-90-40.374-90-90c0-49.626 40.374-90 90-90s90 40.374 90 90zM872 478c-16.541 0-30 13.459-30 30s13.459 30 30 30c16.541 0 30-13.459 30-30s-13.459-30-30-30zM1024 268c0 82.915-69.066 150-152 150-82.71 0-150-67.29-150-150v-30h302v30zM787.139 298c12.384 34.922 45.75 60 84.861 60 39.181 0 73.581-25.437 86.531-60h-171.392zM242 508c0 49.626-40.374 90-90 90s-90-40.374-90-90c0-49.626 40.374-90 90-90s90 40.374 90 90zM152 478c-16.542 0-30 13.459-30 30s13.458 30 30 30c16.542 0 30-13.459 30-30s-13.458-30-30-30zM302 268c0 82.71-67.29 150-150 150-82.916 0-152-67.069-152-150v-30h302v30zM65.47 298c12.948 34.563 47.35 60 86.53 60 39.112 0 72.478-25.078 84.86-60h-171.39zM422 208c0-49.626 40.374-90 90-90s90 40.374 90 90c0 49.626-40.374 90-90 90s-90-40.374-90-90zM542 208c0-16.541-13.459-30-30-30s-30 13.459-30 30c0 16.541 13.459 30 30 30s30-13.459 30-30zM662-34c0 82.71-67.29 150-150 150s-150-67.29-150-150v-30h300v30zM427.139-4c12.384 34.922 45.75 60 84.861 60s72.477-25.078 84.861-60h-169.722zM182 688c0 49.87 41.214 92 90 92h30v60h-30c-82.918 0-150-69.070-150-152v-30h60v30zM842 688v-30h60v30c0 82.918-67.069 152-150 152h-30v-60h30c48.787 0 90-42.13 90-92zM122 178v-30c0-82.918 67.070-152 150-152h30v60h-30c-48.786 0-90 42.131-90 92v30h-60zM902 148v30h-60v-30c0-49.869-41.213-92-90-92h-30v-60h30c82.918 0 150 69.069 150 152z" />
<glyph unicode="&#xe945;" glyph-name="Upload" d="M511.965 76.013c-0.086 0-0.179 0-0.275 0-30.899 0.211-304.054 2.704-381.445 23.635-54.086 14.538-96.781 57.187-111.36 111.28-20.25 76.026-18.961 222.39-18.82 234.080-0.133 11.632-1.438 159.21 18.758 235.859 0.023 0.070 0.039 0.148 0.062 0.219 14.414 53.476 58.070 97.445 111.227 112.024 0.133 0.039 0.273 0.070 0.406 0.109 76.516 20.109 350.212 22.571 381.172 22.781h0.557c30.976-0.211 304.858-2.703 381.539-23.664 53.946-14.5 96.608-57.094 111.226-111.117 21.008-76.703 19.062-224.601 18.851-237.087 0.15-12.294 1.376-157.35-18.758-233.757-0.013-0.080-0.038-0.15-0.054-0.221-14.586-54.093-57.274-96.742-111.421-111.296-0.070-0.022-0.147-0.038-0.218-0.061-76.509-20.102-350.214-22.563-381.165-22.784-0.096 0-0.189 0-0.282 0zM96.15 660.351c-17.781-67.657-16.101-213.353-16.086-214.822v-1.053c-0.531-40.406 1.336-157.424 16.094-212.845 7.156-26.541 28.211-47.562 54.914-54.742 57.101-15.446 279.577-20.304 360.892-20.874 81.523 0.57 304.326 5.296 361.008 20.125 26.618 7.203 47.6 28.154 54.803 54.726 14.774 56.234 16.627 172.678 16.086 212.829 0 0.419 0 0.842 0.010 1.264 0.733 40.89-0.714 159.274-16.026 215.141-0.016 0.054-0.029 0.109-0.038 0.164-7.187 26.656-28.25 47.68-54.954 54.86-56.547 15.461-279.382 20.305-360.89 20.875-81.469-0.571-304.056-5.289-360.908-20.102-26.196-7.266-47.727-29.039-54.907-55.547zM966.426 220.56v0zM410.003 284.016v323.99l280-162-280-161.99z" />
<glyph unicode="&#xe946;" glyph-name="selling" d="M128 617.946v-337.725c0-18.758 7.851-36.662 21.65-49.37l300.923-277.107c25.165-23.174 63.734-23.712 89.533-1.245l318.24 277.107c14.64 12.746 23.040 31.203 23.040 50.614v337.725c0 19.501-8.48 38.035-23.235 50.784l-318.243 274.943c-25.734 22.234-64.035 21.702-89.142-1.238l-300.921-274.943c-13.916-12.715-21.844-30.697-21.844-49.545zM195.112 617.946l300.923 274.942 318.24-274.942v-337.725l-318.24-277.107-300.923 277.107v337.725zM318.511 590.883h-158.037v67.113h167.027l115.523 203.124c11.786 20.723 33.683 33.638 57.52 33.929s46.042-12.087 58.33-32.516l122.4-203.501c0.205-0.343 0.41-0.688 0.611-1.035h162.698v-67.113h-153.709v-281.437h153.709v-67.114h-162.698c-0.099-0.166-0.195-0.333-0.294-0.499l-122.4-207.834c-12.208-20.73-34.582-33.338-58.637-33.046-24.058 0.288-46.118 13.434-57.824 34.454l-115.235 206.925h-167.021v67.114h158.038l-0.001 281.437zM501.363 68.061l122.4 207.83v348.547l-122.4 203.502-115.741-203.502v-348.547l115.741-207.83zM739.587 590.883h-508.754v64.948h508.754v-64.948zM739.587 245.581h-508.754v64.947h508.754v-64.947z" />
<glyph unicode="&#xe947;" glyph-name="merchandise" d="M206.002 698.313c-11.046 0-20-8.956-20-20v-0.95c0-11.046 8.954-20 20-20s20 8.956 20 20v0.95c0 11.044-8.954 20-20 20zM1016.355 729.569l-186 146.159c-0.144 0.112-0.298 0.202-0.445 0.31-0.365 0.272-0.733 0.536-1.117 0.782-0.208 0.132-0.416 0.256-0.627 0.38-0.41 0.242-0.829 0.47-1.254 0.684-0.109 0.054-0.208 0.12-0.317 0.172l-167.997 79.998c-0.093 0.044-0.189 0.072-0.282 0.114-0.461 0.212-0.931 0.402-1.408 0.578-0.192 0.070-0.378 0.144-0.57 0.208-0.499 0.168-1.011 0.308-1.53 0.436-0.179 0.044-0.352 0.098-0.531 0.136-0.544 0.118-1.098 0.206-1.654 0.28-0.157 0.020-0.31 0.054-0.467 0.072-0.71 0.078-1.43 0.122-2.16 0.122h-275.997c-0.73 0-1.446-0.044-2.157-0.12-0.16-0.016-0.31-0.050-0.467-0.072-0.56-0.074-1.117-0.16-1.661-0.28-0.176-0.038-0.352-0.092-0.528-0.136-0.515-0.128-1.027-0.268-1.53-0.438-0.192-0.064-0.378-0.138-0.57-0.208-0.477-0.176-0.947-0.366-1.408-0.576-0.093-0.042-0.189-0.072-0.282-0.116l-167.999-79.998c-0.11-0.052-0.21-0.12-0.318-0.174-0.428-0.214-0.846-0.442-1.256-0.686-0.208-0.124-0.416-0.246-0.618-0.376-0.388-0.25-0.76-0.516-1.128-0.79-0.142-0.106-0.298-0.196-0.438-0.306l-185.999-146.16c-4.824-3.792-7.642-9.59-7.642-15.726v-314.997c0-11.043 8.954-20 20-20h165.999v-422.842c0-11.043 8.954-20 20-20h611.998c11.046 0 20 8.957 20 20v422.842h166c11.046 0 20 8.957 20 20v315.001c0.006 6.136-2.813 11.934-7.642 15.726zM500.499 920h22.998v-46.914h-22.998v46.914zM394 920h66.499v-66.914c0-11.044 8.954-20 20-20h63.002c11.043 0 20 8.956 20 20v66.914h66.496v-52c0-65.064-52.934-117.997-118-117.997s-117.997 52.934-117.997 117.997v52zM185.999 418.845h-145.999v21.498h145.999v-21.498zM797.997-24h-571.998v21.501h571.998v-21.501zM984 418.845h-146.003v21.498h146v-21.498h0.003zM984.003 480.342h-146.006v1.376c0 11.046-8.954 20-20 20-11.043 0-20-8.954-20-20v-444.218h-571.998v581.693c0 11.043-8.954 20-20 20s-20-8.957-20-20v-138.851h-145.999v223.78l146.001 114.728v-41.724c0-11.044 8.954-20 20-20s20 8.956 20 20v70.248l127.999 60.952v-40.326c0-87.122 70.88-157.997 158-157.997s158 70.876 158 157.997v40.324l128-60.952v-207.718c0-11.046 8.954-20 20-20 11.043 0 20 8.954 20 20v179.196l146-114.728v-223.78h0.003zM817.997 601.485c-11.043 0-20-8.954-20-20v-0.95c0-11.046 8.957-20 20-20 11.046 0 20 8.954 20 20v0.95c0 11.046-8.954 20-20 20zM731.453 449.987c-3.197 7.251-10.374 11.933-18.301 11.933h-73.85l60.214 150.234c2.47 6.163 1.722 13.149-2 18.65-3.718 5.498-9.926 8.79-16.563 8.79h-283.139c-8.509 0-16.086-5.382-18.886-13.418l-86.957-249.536c-2.132-6.118-1.17-12.886 2.582-18.166 3.75-5.274 9.826-8.41 16.304-8.41h84.161l-39.299-152.691c-1.542-5.984-0.227-12.352 3.562-17.235 3.789-4.886 9.626-7.747 15.805-7.747h109.958c2.816 0 5.491 0.589 7.92 1.635 0.144 0.064 0.278 0.138 0.419 0.202 0.464 0.214 0.918 0.432 1.36 0.678 0.214 0.115 0.422 0.256 0.63 0.381 0.358 0.214 0.717 0.435 1.059 0.672 0.23 0.16 0.454 0.339 0.682 0.509 0.31 0.237 0.618 0.474 0.915 0.726 0.218 0.186 0.432 0.387 0.646 0.586 0.288 0.269 0.57 0.544 0.842 0.829 0.096 0.099 0.198 0.186 0.291 0.285l228.106 249.533c5.347 5.85 6.736 14.307 3.539 21.562zM339.005 390.064l73.021 209.533h67.597l-73.018-209.533h-67.6zM469.536 212.39h-68.653l35.434 137.674h68.653l-35.434-137.674zM524.406 265.094l25.734 99.984c1.542 5.987 0.227 12.352-3.562 17.238s-9.622 7.747-15.805 7.747h-81.808l73.021 209.533h129.402l-60.218-150.234c-2.47-6.16-1.718-13.146 2-18.646 3.718-5.498 9.926-8.794 16.563-8.794h58.035l-143.363-156.829z" />
<glyph unicode="&#xe948;" glyph-name="donations" d="M1011.654 379.558c-12.314 19.702-32.566 33.309-55.568 37.334-23.024 4.022-46.72-1.894-65.254-16.365l-72.89-57.962c-12.045 12.688-27.987 21.357-45.546 24.429-23.002 4.026-46.72-1.891-65.12-16.262l-42.797-33.578h-109.904c-17.565 0-35.123 4.192-50.774 12.115l-39.158 19.837c-32.998 16.707-70.019 24.797-107.005 23.379-51.298-1.958-100.404-21.99-138.265-56.406l-211.005-191.795c-9.891-8.989-11.183-24.006-2.976-34.531l110.485-141.702c5.049-6.474 12.663-9.926 20.399-9.926 4.684 0 9.417 1.267 13.648 3.894l132.868 82.483c9.465 5.875 20.368 8.982 31.534 8.982h308.308c43.786 0 86.752 14.915 120.998 41.997l249.379 197.254c32.595 25.76 40.598 71.686 18.643 106.822zM739.2 310.55c6.934 5.421 15.549 7.568 24.246 6.048 5.235-0.918 9.968-3.091 13.933-6.282l-43.11-34.282c-3.84 7.142-8.8 13.6-14.598 19.197l19.53 15.318zM960.899 312.762l-249.389-197.258c-25.152-19.894-56.71-30.851-88.874-30.851h-308.311c-20.842 0-41.199-5.802-58.867-16.768l-113.090-70.205-81.686 104.768 193.5 175.891c28.871 26.24 66.313 41.517 105.433 43.011 28.198 1.082 56.432-5.091 81.594-17.83l39.162-19.837c22.87-11.581 48.528-17.706 74.198-17.706h110.819c14.586 0 26.445-11.776 26.445-26.256 0-13.894-10.944-25.408-24.915-26.214l-308.381-17.776c-14.214-0.819-25.066-12.918-24.24-27.024 0.829-14.109 12.95-24.867 27.229-24.061l308.381 17.776c32.256 1.856 59.040 23.072 69.152 51.853l183.821 146.176c6.941 5.421 15.568 7.571 24.256 6.048 8.694-1.52 16.051-6.461 20.707-13.914 8.189-13.101 5.206-30.214-6.944-39.824zM599.792 349.232c182.55 0 330.982 148.432 330.982 330.984h-102.4c0-125.998-102.586-228.584-228.582-228.584v-102.4zM930.774 680.216c0 182.551-148.432 330.984-330.982 330.984v-102.4c125.997 0 228.582-102.587 228.582-228.584h102.4zM599.792 1011.2c-182.55 0-330.985-148.428-330.985-330.984h102.4c0 126.001 102.586 228.584 228.586 228.584v102.4zM268.807 680.216c0-182.555 148.435-330.984 330.985-330.984v102.4c-126 0-228.586 102.582-228.586 228.584h-102.4zM593.28 612.95c-10.835 0-22.342 2.643-32.406 7.443-6.208 2.963-13.44 3.142-19.827 0.506-6.502-2.678-11.587-8.010-13.952-14.611l-0.989-2.752c-4.208-11.776 0.989-24.826 12.102-30.355 10.301-5.13 22.902-8.835 35.792-10.557v-10.461c0-13.61 11.075-24.682 25.021-24.682 13.613 0 24.685 11.075 24.685 24.682v13.347c32.474 9.808 53.309 36.493 53.309 68.646 0 44.3-32.678 63.31-61.085 74.892-30.749 12.725-33.056 18.289-33.056 25.324 0 9.26 8.051 14.796 21.546 14.796 9.885 0 18.787-1.771 27.238-5.424 6.16-2.656 12.976-2.676 19.19-0.044 6.192 2.627 11.114 7.736 13.498 14.036l0.989 2.618c4.691 12.386-1.104 26.175-13.19 31.386-8.109 3.498-16.982 5.946-26.416 7.296v9.231c0 13.61-11.075 24.685-24.685 24.685-13.613 0-24.682-11.075-24.682-24.685v-12.333c-31.501-9.527-50.947-34.449-50.947-65.612 0-40.743 32.707-59.066 64.554-71.554 26.992-10.944 29.248-19.659 29.248-26.968-0.006-13.917-13.968-18.851-25.936-18.851z" />
<glyph unicode="&#xe949;" glyph-name="advertising" d="M362.666 234.666h-298.666c-35.285 0-64 28.717-64 64v597.334c0 35.285 28.715 64 64 64h640c35.286 0 64-28.715 64-64v-384c0-11.776-9.558-21.334-21.334-21.334s-21.331 9.558-21.331 21.334v384c0 11.776-9.6 21.333-21.334 21.333h-640c-11.733 0-21.333-9.557-21.333-21.333v-597.334c0-11.776 9.6-21.331 21.333-21.331h298.666c11.776 0 21.334-9.558 21.334-21.334s-9.558-21.334-21.334-21.334zM320.003 490.672c-11.777 0-21.334 9.558-21.334 21.334v149.332c0 23.509-19.115 42.667-42.667 42.667s-42.667-19.157-42.667-42.667v-149.332c0-11.776-9.557-21.334-21.333-21.334s-21.333 9.558-21.333 21.334v149.332c0 47.061 38.272 85.333 85.333 85.333s85.332-38.272 85.332-85.333v-149.332c0-11.776-9.555-21.334-21.331-21.334zM320.003 576.006h-128.001c-11.776 0-21.333 9.555-21.333 21.331s9.557 21.334 21.333 21.334h128.001c11.776 0 21.331-9.558 21.331-21.334s-9.555-21.331-21.331-21.331zM490.669 490.672h-42.666c-11.776 0-21.334 9.558-21.334 21.334v213.332c0 11.776 9.558 21.333 21.334 21.333h42.666c58.838 0 106.666-47.872 106.666-106.667v-42.668c0-58.794-47.827-106.666-106.666-106.666zM469.334 533.338h21.334c35.286 0 64 28.717 64 64v42.668c0 35.285-28.714 64-64 64h-21.334v-170.668zM771.67 219.008c-5.459 0-10.922 2.093-15.104 6.23l-90.496 90.496c-8.32 8.362-21.885 8.278-30.205 0-8.278-8.32-8.278-21.846 0-30.208 8.32-8.32 8.32-21.846 0-30.166-8.32-8.275-21.846-8.32-30.166 0.045-24.918 24.915-24.918 65.536 0 90.451 24.832 25.005 65.536 25.005 90.538 0l90.496-90.496c8.32-8.32 8.32-21.843 0-30.163-4.138-4.096-9.6-6.189-15.062-6.189zM832 279.334c-5.459 0-10.922 2.093-15.104 6.23l-60.33 60.33c-8.32 8.32-21.846 8.32-30.166 0s-8.32-21.843 0-30.163c8.32-8.32 8.32-21.846 0-30.166s-21.843-8.32-30.163 0c-24.96 24.96-24.96 65.536 0 90.496 24.915 24.96 65.578 24.96 90.496 0l60.33-60.33c8.32-8.32 8.32-21.846 0-30.166-4.138-4.138-9.6-6.23-15.062-6.23zM779.645-63.962c-15.702 0-31.53 1.92-47.104 5.891l-148.736 37.93c-5.546 1.408-10.282 4.992-13.184 9.898-10.154 17.408-20.65 59.053 12.416 92.118 14.678 14.678 34.474 20.394 53.76 21.674l-181.974 181.974c-12.074 12.074-18.73 28.16-18.73 45.27 0 17.107 6.656 33.152 18.73 45.267 24.918 24.96 65.581 24.96 90.496 0l181.037-181.034c8.32-8.32 8.32-21.846 0-30.166s-21.846-8.32-30.166 0l-181.034 181.037c-8.32 8.275-21.846 8.32-30.166 0s-8.32-21.846 0-30.166l226.304-226.262c6.998-6.998 8.234-17.834 3.072-26.24-5.206-8.403-15.402-12.16-24.874-9.088-18.176 6.016-60.758 13.27-76.288-2.39-11.949-11.946-10.966-25.171-8.704-33.107l138.624-35.37c50.56-12.973 105.386 2.003 142.464 39.123l51.968 51.968c28.243 28.246 43.776 65.75 43.776 105.642 0 39.894-15.533 77.357-43.734 105.603l-90.496 90.538c-8.32 8.278-21.846 8.32-30.166 0-4.051-4.054-6.272-9.386-6.272-15.104s2.262-11.050 6.272-15.062c8.32-8.32 8.32-21.843 0-30.208-8.32-8.32-21.843-8.32-30.163 0-12.118 12.118-18.774 28.205-18.774 45.27s6.656 33.152 18.774 45.27c24.915 24.915 65.491 24.915 90.496 0l90.496-90.541c36.266-36.266 56.234-84.522 56.234-135.766 0-51.283-19.968-99.539-56.234-135.763l-51.968-51.968c-36.352-36.394-85.76-56.237-136.15-56.237z" />
<glyph unicode="&#xe94a;" glyph-name="star1" d="M635.565 596.723l-125.018 277.415-125.018-277.415-299.665-42.986 219.124-222.995-52.892-308.88 258.451 148.634 258.448-148.634-52.893 308.88 219.213 222.995-299.75 42.986zM326.63 675.015l105.635 234.399c13.872 30.789 44.509 50.585 78.282 50.585 33.77 0 64.406-19.796 78.282-50.585l105.632-234.397 253.043-36.288c32.051-4.598 58.794-26.835 69.158-57.514 10.362-30.678 2.586-64.579-20.115-87.67l-188.39-191.645 45.472-265.546c5.613-32.79-8.218-65.872-35.498-84.909-27.283-19.034-63.104-20.598-91.942-4.016l-215.642 124.016-215.644-124.016c-28.838-16.582-64.66-15.018-91.941 4.016-27.282 19.037-41.112 52.118-35.497 84.909l45.474 265.555-188.319 191.648c-22.693 23.094-30.465 56.989-20.101 87.664 10.365 30.672 37.103 52.909 69.153 57.507l252.958 36.286z" />
<glyph unicode="&#xe94b;" glyph-name="star-acute-angle" horiz-adv-x="1170" d="M370.589 604.955v232.166l214.554-116.367 214.554 116.367v-232.166l225.148-125.492-225.148-136.569v-254.080l-214.554 127.28-214.554-127.28v254.080l-225.148 136.569 225.148 125.492zM297.447 960v-312.076l-297.447-165.792 297.447-180.418v-341.332l287.695 170.664 287.696-170.664v341.332l297.446 180.418-297.446 165.792v312.076l-287.696-156.038-287.695 156.038z" />
<glyph unicode="&#xe94e;" glyph-name="map-pointer" horiz-adv-x="788" d="M272.112 193.79c7.161 0 14.322-7.161 14.322-14.322l71.608-214.825c14.322-35.804 57.287-35.804 64.448 0l71.608 214.825c0 7.161 7.161 7.161 14.322 14.322 171.86 50.126 279.273 200.503 279.273 372.364 0 214.825-179.021 393.846-393.846 393.846s-393.846-179.021-393.846-393.846c0-171.86 107.413-322.238 272.112-372.364zM393.846 845.427c136.056 0 250.629-100.252 272.112-229.147l50.126 42.965 28.643-28.643-78.769-78.769c-7.161 0-14.322-7.161-14.322-7.161s-7.161 0-7.161 0l-100.252 64.448 21.483 35.804 64.448-42.965c-21.483 114.573-121.734 200.503-236.308 200.503-100.252 0-193.343-64.448-221.986-164.699l-42.965 14.322c42.965 114.573 143.217 193.343 264.951 193.343zM42.965 501.706l78.769 78.769c7.161 7.161 14.322 7.161 21.483 0l100.252-57.287-14.322-35.804-71.608 42.965c14.322-114.573 114.573-200.503 236.308-200.503 100.252 0 193.343 64.448 221.986 164.699l35.804-14.322c-35.804-114.573-143.217-193.343-264.951-193.343-128.895 0-243.469 107.413-264.951 236.308l-50.126-50.126-28.643 28.643z" />
<glyph unicode="&#xe96d;" glyph-name="mobile" horiz-adv-x="511" d="M418.263-64c0 0 92.962 0 92.962 93.091v837.818c0 93.091-92.962 93.091-92.962 93.091h-325.301c0 0-92.962 0-92.962-93.091v-837.818c0-93.091 92.962-93.091 92.962-93.091h325.301zM255.612-25.212c-25.6 0-46.416 20.816-46.416 46.416s20.816 46.416 46.416 46.416c25.6 0 46.416-20.816 46.416-46.416s-20.816-46.416-46.416-46.416zM185.923 903.24c0 5.818 2.715 10.214 6.206 10.214h127.095c3.362 0 6.206-4.655 6.206-10.214v-2.715c0-5.818-2.844-10.214-6.206-10.214h-127.095c-3.362 0-6.206 4.655-6.206 10.214v2.715zM46.416 843.766h418.263v-743.564h-418.263v743.564z" />
<glyph unicode="&#xf005;" glyph-name="star" horiz-adv-x="951" d="M950.857 581.143c0-10.286-7.429-20-14.857-27.429l-207.429-202.286 49.143-285.714c0.571-4 0.571-7.429 0.571-11.429 0-14.857-6.857-28.571-23.429-28.571-8 0-16 2.857-22.857 6.857l-256.571 134.857-256.571-134.857c-7.429-4-14.857-6.857-22.857-6.857-16.571 0-24 13.714-24 28.571 0 4 0.571 7.429 1.143 11.429l49.143 285.714-208 202.286c-6.857 7.429-14.286 17.143-14.286 27.429 0 17.143 17.714 24 32 26.286l286.857 41.714 128.571 260c5.143 10.857 14.857 23.429 28 23.429s22.857-12.571 28-23.429l128.571-260 286.857-41.714c13.714-2.286 32-9.143 32-26.286z" />
<glyph unicode="&#xf006;" glyph-name="star-o" horiz-adv-x="951" d="M649.714 377.143l174.857 169.714-241.143 35.429-108 218.286-108-218.286-241.143-35.429 174.857-169.714-41.714-240.571 216 113.714 215.429-113.714zM950.857 581.143c0-10.286-7.429-20-14.857-27.429l-207.429-202.286 49.143-285.714c0.571-4 0.571-7.429 0.571-11.429 0-15.429-6.857-28.571-23.429-28.571-8 0-16 2.857-22.857 6.857l-256.571 134.857-256.571-134.857c-7.429-4-14.857-6.857-22.857-6.857-16.571 0-24 13.714-24 28.571 0 4 0.571 7.429 1.143 11.429l49.143 285.714-208 202.286c-6.857 7.429-14.286 17.143-14.286 27.429 0 17.143 17.714 24 32 26.286l286.857 41.714 128.571 260c5.143 10.857 14.857 23.429 28 23.429s22.857-12.571 28-23.429l128.571-260 286.857-41.714c13.714-2.286 32-9.143 32-26.286z" />
<glyph unicode="&#xf041;" glyph-name="map-marker" horiz-adv-x="585" d="M438.857 585.143c0 80.571-65.714 146.286-146.286 146.286s-146.286-65.714-146.286-146.286 65.714-146.286 146.286-146.286 146.286 65.714 146.286 146.286zM585.143 585.143c0-34.857-4-70.857-18.857-102.286l-208-442.286c-12-25.143-38.286-40.571-65.714-40.571s-53.714 15.429-65.143 40.571l-208.571 442.286c-14.857 31.429-18.857 67.429-18.857 102.286 0 161.714 130.857 292.571 292.571 292.571s292.571-130.857 292.571-292.571z" />
<glyph unicode="&#xf099;" glyph-name="twitter" horiz-adv-x="951" d="M925.714 717.714c-25.143-36.571-56.571-69.143-92.571-95.429 0.571-8 0.571-16 0.571-24 0-244-185.714-525.143-525.143-525.143-104.571 0-201.714 30.286-283.429 82.857 14.857-1.714 29.143-2.286 44.571-2.286 86.286 0 165.714 29.143 229.143 78.857-81.143 1.714-149.143 54.857-172.571 128 11.429-1.714 22.857-2.857 34.857-2.857 16.571 0 33.143 2.286 48.571 6.286-84.571 17.143-148 91.429-148 181.143v2.286c24.571-13.714 53.143-22.286 83.429-23.429-49.714 33.143-82.286 89.714-82.286 153.714 0 34.286 9.143 65.714 25.143 93.143 90.857-112 227.429-185.143 380.571-193.143-2.857 13.714-4.571 28-4.571 42.286 0 101.714 82.286 184.571 184.571 184.571 53.143 0 101.143-22.286 134.857-58.286 41.714 8 81.714 23.429 117.143 44.571-13.714-42.857-42.857-78.857-81.143-101.714 37.143 4 73.143 14.286 106.286 28.571z" />
<glyph unicode="&#xf09a;" glyph-name="facebook, facebook-f" horiz-adv-x="602" d="M548 944v-150.857h-89.714c-70.286 0-83.429-33.714-83.429-82.286v-108h167.429l-22.286-169.143h-145.143v-433.714h-174.857v433.714h-145.714v169.143h145.714v124.571c0 144.571 88.571 223.429 217.714 223.429 61.714 0 114.857-4.571 130.286-6.857z" />
<glyph unicode="&#xf0d5;" glyph-name="google-plus" horiz-adv-x="1317" d="M821.143 429.143c0-239.429-160.571-409.143-402.286-409.143-231.429 0-418.857 187.429-418.857 418.857s187.429 418.857 418.857 418.857c113.143 0 207.429-41.143 280.571-109.714l-113.714-109.143c-30.857 29.714-85.143 64.571-166.857 64.571-142.857 0-259.429-118.286-259.429-264.571s116.571-264.571 259.429-264.571c165.714 0 228 119.429 237.714 180.571h-237.714v144h395.429c4-21.143 6.857-42.286 6.857-69.714zM1316.571 498.857v-120h-119.429v-119.429h-120v119.429h-119.429v120h119.429v119.429h120v-119.429h119.429z" />
<glyph unicode="&#xf123;" glyph-name="star-half-empty, star-half-full, star-half-o" horiz-adv-x="951" d="M677.714 404l146.857 142.857-241.143 35.429-17.143 34.286-90.857 184v-550.286l33.714-17.714 181.714-96-34.286 202.857-6.857 37.714zM936 553.714l-207.429-202.286 49.143-285.714c4-25.143-5.143-40-22.857-40-6.286 0-14.286 2.286-22.857 6.857l-256.571 134.857-256.571-134.857c-8.571-4.571-16.571-6.857-22.857-6.857-17.714 0-26.857 14.857-22.857 40l49.143 285.714-208 202.286c-24.571 24.571-16.571 48.571 17.714 53.714l286.857 41.714 128.571 260c7.429 15.429 17.714 23.429 28 23.429v0c10.286 0 20-8 28-23.429l128.571-260 286.857-41.714c34.286-5.143 42.286-29.143 17.143-53.714z" />
<glyph unicode="&#xf16a;" glyph-name="youtube-play" d="M406.286 306.286l276.571 142.857-276.571 144.571v-287.429zM512 798.857c215.429 0 358.286-10.286 358.286-10.286 20-2.286 64-2.286 102.857-43.429 0 0 31.429-30.857 40.571-101.714 10.857-82.857 10.286-165.714 10.286-165.714v-77.714s0.571-82.857-10.286-165.714c-9.143-70.286-40.571-101.714-40.571-101.714-38.857-40.571-82.857-40.571-102.857-42.857 0 0-142.857-10.857-358.286-10.857v0c-266.286 2.286-348 10.286-348 10.286-22.857 4-74.286 2.857-113.143 43.429 0 0-31.429 31.429-40.571 101.714-10.857 82.857-10.286 165.714-10.286 165.714v77.714s-0.571 82.857 10.286 165.714c9.143 70.857 40.571 101.714 40.571 101.714 38.857 41.143 82.857 41.143 102.857 43.429 0 0 142.857 10.286 358.286 10.286v0z" />
<glyph unicode="&#xf16d;" glyph-name="instagram" horiz-adv-x="878" d="M585.143 438.857c0 80.571-65.714 146.286-146.286 146.286s-146.286-65.714-146.286-146.286 65.714-146.286 146.286-146.286 146.286 65.714 146.286 146.286zM664 438.857c0-124.571-100.571-225.143-225.143-225.143s-225.143 100.571-225.143 225.143 100.571 225.143 225.143 225.143 225.143-100.571 225.143-225.143zM725.714 673.143c0-29.143-23.429-52.571-52.571-52.571s-52.571 23.429-52.571 52.571 23.429 52.571 52.571 52.571 52.571-23.429 52.571-52.571zM438.857 798.857c-64 0-201.143 5.143-258.857-17.714-20-8-34.857-17.714-50.286-33.143s-25.143-30.286-33.143-50.286c-22.857-57.714-17.714-194.857-17.714-258.857s-5.143-201.143 17.714-258.857c8-20 17.714-34.857 33.143-50.286s30.286-25.143 50.286-33.143c57.714-22.857 194.857-17.714 258.857-17.714s201.143-5.143 258.857 17.714c20 8 34.857 17.714 50.286 33.143s25.143 30.286 33.143 50.286c22.857 57.714 17.714 194.857 17.714 258.857s5.143 201.143-17.714 258.857c-8 20-17.714 34.857-33.143 50.286s-30.286 25.143-50.286 33.143c-57.714 22.857-194.857 17.714-258.857 17.714zM877.714 438.857c0-60.571 0.571-120.571-2.857-181.143-3.429-70.286-19.429-132.571-70.857-184s-113.714-67.429-184-70.857c-60.571-3.429-120.571-2.857-181.143-2.857s-120.571-0.571-181.143 2.857c-70.286 3.429-132.571 19.429-184 70.857s-67.429 113.714-70.857 184c-3.429 60.571-2.857 120.571-2.857 181.143s-0.571 120.571 2.857 181.143c3.429 70.286 19.429 132.571 70.857 184s113.714 67.429 184 70.857c60.571 3.429 120.571 2.857 181.143 2.857s120.571 0.571 181.143-2.857c70.286-3.429 132.571-19.429 184-70.857s67.429-113.714 70.857-184c3.429-60.571 2.857-120.571 2.857-181.143z" />
</font>
</defs>
</svg>
